<?xml version="1.0" standalone="no"?>
<!DOCTYPE svg PUBLIC "-//W3C//DTD SVG 1.1//EN" "http://www.w3.org/Graphics/SVG/1.1/DTD/svg11.dtd" >
<svg xmlns="http://www.w3.org/2000/svg" xmlns:xlink="http://www.w3.org/1999/xlink" version="1.1">
<metadata>
Created by FontForge 20190801 at Fri Sep 27 16:03:50 2013
 By Jimmy Wärting
Copyright (c) 2010-2012 by Claus Eggers Srensen (es@forthehearts.net), with Reserved Font Name 'Playfair'.
</metadata>
<defs>
<font id="PlayfairDisplay-Regular" horiz-adv-x="694" >
  <font-face 
    font-family="Playfair Display"
    font-weight="400"
    font-stretch="normal"
    units-per-em="2048"
    panose-1="0 0 5 0 0 0 0 0 0 0"
    ascent="1638"
    descent="-410"
    x-height="1055"
    cap-height="1450"
    bbox="-547 -494 2480 2047"
    underline-thickness="41"
    underline-position="-205"
    unicode-range="U+000D-FB02"
  />
<missing-glyph horiz-adv-x="1151" 
d="M1028 0v1581h-905v-1581h905zM197 1520h757v-1459h-757v1459z" />
    <glyph glyph-name=".notdef" horiz-adv-x="1151" 
d="M1028 0v1581h-905v-1581h905zM197 1520h757v-1459h-757v1459z" />
    <glyph glyph-name="A" unicode="A" horiz-adv-x="1290" 
d="M662 1460h-33l-482 -1241q-36 -91 -78 -131q-43 -40 -83 -47v-41q30 3 66 5q36 1 87 1q55 0 116 -1q61 -2 120 -5v41q-88 1 -133 29t-45 94q0 31 10 73t31 95l84 217h494l126 -336q12 -31 18 -54q6 -24 6 -42q0 -42 -35 -58q-36 -16 -110 -18v-41q45 3 113 5q69 1 149 1
q60 0 118 -1q59 -2 102 -5v41q-33 0 -72 27q-38 28 -70 104zM801 590h-464l235 611z" />
    <glyph glyph-name="Aacute" unicode="&#xc1;" horiz-adv-x="1290" 
d="M934 1763q28 19 41 40t13 41t-11 38q-11 16 -27 25t-36 9q-14 0 -30 -5q-15 -5 -32 -15q-60 -41 -134 -111q-73 -70 -210 -177l14 -27q156 77 252 111q96 35 160 71v0zM662 1460h-33l-482 -1241q-36 -91 -78 -131q-43 -40 -83 -47v-41q30 3 66 5q36 1 87 1q55 0 116 -1
q61 -2 120 -5v41q-88 1 -133 29t-45 94q0 31 10 73t31 95l84 217h494l126 -336q12 -31 18 -54q6 -24 6 -42q0 -42 -35 -58q-36 -16 -110 -18v-41q45 3 113 5q69 1 149 1q60 0 118 -1q59 -2 102 -5v41q-33 0 -72 27q-38 28 -70 104zM801 590h-464l235 611z" />
    <glyph glyph-name="Abreve" unicode="&#x102;" horiz-adv-x="1290" 
d="M633 1602q157 5 258 79t149 158l-24 23q-48 -49 -142 -90q-94 -40 -241 -43q-147 2 -241 42q-93 40 -140 89l-27 -21q49 -84 150 -158q102 -74 258 -79v0zM662 1460h-33l-482 -1241q-36 -91 -78 -131q-43 -40 -83 -47v-41q30 3 66 5q36 1 87 1q55 0 116 -1q61 -2 120 -5
v41q-88 1 -133 29t-45 94q0 31 10 73t31 95l84 217h494l126 -336q12 -31 18 -54q6 -24 6 -42q0 -42 -35 -58q-36 -16 -110 -18v-41q45 3 113 5q69 1 149 1q60 0 118 -1q59 -2 102 -5v41q-33 0 -72 27q-38 28 -70 104zM801 590h-464l235 611z" />
    <glyph glyph-name="Acircumflex" unicode="&#xc2;" horiz-adv-x="1290" 
d="M592 1720q73 -39 190 -77q116 -39 242 -66l11 29q-135 47 -235 119q-99 72 -148 151h-37q-49 -79 -149 -151q-99 -72 -234 -119l10 -29q101 27 195 66q94 38 155 77v0zM662 1460h-33l-482 -1241q-36 -91 -78 -131q-43 -40 -83 -47v-41q30 3 66 5q36 1 87 1q55 0 116 -1
q61 -2 120 -5v41q-88 1 -133 29t-45 94q0 31 10 73t31 95l84 217h494l126 -336q12 -31 18 -54q6 -24 6 -42q0 -42 -35 -58q-36 -16 -110 -18v-41q45 3 113 5q69 1 149 1q60 0 118 -1q59 -2 102 -5v41q-33 0 -72 27q-38 28 -70 104zM801 590h-464l235 611z" />
    <glyph glyph-name="Adieresis" unicode="&#xc4;" horiz-adv-x="1290" 
d="M416 1581q49 1 83 35q34 33 36 84q-2 49 -36 83t-83 36q-51 -2 -84 -36q-34 -34 -35 -83q1 -51 35 -84q33 -34 84 -35v0zM850 1581q49 1 84 35q34 33 35 84q-1 49 -35 83q-35 34 -84 36q-50 -2 -84 -36t-35 -83q1 -51 35 -84q34 -34 84 -35v0zM662 1460h-33l-482 -1241
q-36 -91 -78 -131q-43 -40 -83 -47v-41q30 3 66 5q36 1 87 1q55 0 116 -1q61 -2 120 -5v41q-88 1 -133 29t-45 94q0 31 10 73t31 95l84 217h494l126 -336q12 -31 18 -54q6 -24 6 -42q0 -42 -35 -58q-36 -16 -110 -18v-41q45 3 113 5q69 1 149 1q60 0 118 -1q59 -2 102 -5v41
q-33 0 -72 27q-38 28 -70 104zM801 590h-464l235 611z" />
    <glyph glyph-name="Agrave" unicode="&#xc0;" horiz-adv-x="1290" 
d="M344 1763q64 -36 160 -71q96 -34 252 -111l14 27q-137 107 -210 177q-74 70 -134 111q-17 10 -32 15q-16 5 -30 5q-20 0 -36 -9t-27 -25q-11 -18 -11 -38t13 -41t41 -40v0zM662 1460h-33l-482 -1241q-36 -91 -78 -131q-43 -40 -83 -47v-41q30 3 66 5q36 1 87 1
q55 0 116 -1q61 -2 120 -5v41q-88 1 -133 29t-45 94q0 31 10 73t31 95l84 217h494l126 -336q12 -31 18 -54q6 -24 6 -42q0 -42 -35 -58q-36 -16 -110 -18v-41q45 3 113 5q69 1 149 1q60 0 118 -1q59 -2 102 -5v41q-33 0 -72 27q-38 28 -70 104zM801 590h-464l235 611z" />
    <glyph glyph-name="Amacron" unicode="&#x100;" horiz-adv-x="1290" 
d="M993 1677v52h-721v-52h721zM662 1460h-33l-482 -1241q-36 -91 -78 -131q-43 -40 -83 -47v-41q30 3 66 5q36 1 87 1q55 0 116 -1q61 -2 120 -5v41q-88 1 -133 29t-45 94q0 31 10 73t31 95l84 217h494l126 -336q12 -31 18 -54q6 -24 6 -42q0 -42 -35 -58q-36 -16 -110 -18
v-41q45 3 113 5q69 1 149 1q60 0 118 -1q59 -2 102 -5v41q-33 0 -72 27q-38 28 -70 104zM801 590h-464l235 611z" />
    <glyph glyph-name="Aogonek" unicode="&#x104;" horiz-adv-x="1290" 
d="M1280 -219q-21 -29 -53 -48q-33 -19 -72 -20q-42 1 -65 25q-23 25 -23 65q-2 53 42 109q44 55 156 90l38 -2v41q-33 0 -72 27q-38 28 -70 104l-499 1288h-33l-482 -1241q-36 -91 -78 -131q-43 -40 -83 -47v-41q30 3 66 5q36 1 87 1q55 0 116 -1q61 -2 120 -5v41
q-88 1 -133 29t-45 94q0 31 10 73t31 95l84 217h494l126 -336q12 -31 18 -54q6 -24 6 -42q0 -42 -35 -58q-36 -16 -110 -18v-41q45 3 113 5q69 1 149 1h57q28 0 56 -1q-134 -45 -206 -111t-73 -146q1 -61 44 -96q44 -36 118 -37q68 0 126 34q58 33 105 105zM801 590h-464
l235 611z" />
    <glyph glyph-name="Aring" unicode="&#xc5;" horiz-adv-x="1290" 
d="M633 1520q83 1 140 50t59 138q-2 87 -59 136t-140 50q-80 -1 -137 -50q-56 -49 -59 -136q3 -89 59 -138q57 -49 137 -50v0zM633 1851q54 0 97 -37t45 -108q-2 -72 -45 -107q-43 -36 -97 -36q-51 0 -94 36q-42 35 -45 107q3 71 45 108q43 37 94 37v0zM662 1460h-33
l-482 -1241q-36 -91 -78 -131q-43 -40 -83 -47v-41q30 3 66 5q36 1 87 1q55 0 116 -1q61 -2 120 -5v41q-88 1 -133 29t-45 94q0 31 10 73t31 95l84 217h494l126 -336q12 -31 18 -54q6 -24 6 -42q0 -42 -35 -58q-36 -16 -110 -18v-41q45 3 113 5q69 1 149 1q60 0 118 -1
q59 -2 102 -5v41q-33 0 -72 27q-38 28 -70 104zM801 590h-464l235 611z" />
    <glyph glyph-name="Atilde" unicode="&#xc3;" horiz-adv-x="1290" 
d="M398 1739q103 -10 195 -79q91 -69 202 -79q89 1 152 58q64 57 75 159l-30 6q-19 -65 -52 -90t-75 -24q-104 10 -195 79q-92 68 -203 78q-88 -1 -152 -58t-75 -159l31 -6q18 65 51 91q33 25 76 24v0zM662 1460h-33l-482 -1241q-36 -91 -78 -131q-43 -40 -83 -47v-41
q30 3 66 5q36 1 87 1q55 0 116 -1q61 -2 120 -5v41q-88 1 -133 29t-45 94q0 31 10 73t31 95l84 217h494l126 -336q12 -31 18 -54q6 -24 6 -42q0 -42 -35 -58q-36 -16 -110 -18v-41q45 3 113 5q69 1 149 1q60 0 118 -1q59 -2 102 -5v41q-33 0 -72 27q-38 28 -70 104zM801 590
h-464l235 611z" />
    <glyph glyph-name="AE" unicode="&#xc6;" horiz-adv-x="1749" 
d="M1636 262q0 43 2 82q1 38 4 66h-47q-10 -201 -49 -283q-40 -83 -184 -80h-150q-102 -3 -135 29q-33 33 -30 141v492h149q101 -4 126 -73q25 -70 30 -157h47q-7 99 -10 154q-3 54 -3 96v38q-1 19 -1 41q0 30 2 72q2 41 6 99h-47q-4 -68 -26 -145t-124 -84h-149v483
q-3 108 30 141q33 32 135 29h129q122 3 162 -70t51 -252h48q-4 24 -5 57q-2 33 -2 70t3 103q4 65 12 139q-89 -4 -195 -5q-105 -1 -192 -1h-122q-73 0 -159 1l82 136h-49l-82 -135l-104 2q-51 1 -99 2v-41q63 -2 99 -13q35 -11 50 -40l-718 -1184q-43 -71 -76 -101
q-33 -29 -65 -30v-41q26 3 64 5q37 1 73 1q56 0 105 -1q49 -2 81 -5v41q-70 3 -106 19q-36 17 -36 53q0 37 38 100l299 496h358v-492q2 -108 -22 -142q-25 -33 -103 -34v-41q133 4 271 5q139 1 221 1q97 0 213 -1q117 -1 215 -5q-8 80 -12 151q-3 71 -3 111v0zM856 750h-333
l330 548q3 -27 3 -65v-483z" />
    <glyph glyph-name="B" unicode="B" horiz-adv-x="1276" 
d="M766 770q170 55 241 150q72 95 70 206q0 144 -108 232q-109 88 -324 90q-39 0 -124 -2q-86 -2 -185 -2q-69 0 -137 2q-68 1 -113 4v-41q102 -1 135 -34q34 -34 31 -142v-1016q3 -108 -31 -142q-33 -33 -135 -34v-41q44 3 112 5q68 1 142 1q127 0 216 -3q90 -3 136 -3
q232 3 361 111t131 286q4 128 -87 231q-92 102 -331 138v4zM594 1409q152 0 220 -77t67 -228q4 -138 -60 -234t-241 -100h-138v463q-2 104 29 141t123 35v0zM596 47q-93 -3 -125 31q-31 35 -29 139v518h172q193 -1 280 -86q87 -86 85 -243q1 -173 -91 -266q-92 -92 -292 -93
v0z" />
    <glyph glyph-name="C" unicode="C" horiz-adv-x="1409" 
d="M760 1479q-291 -5 -468 -211q-178 -207 -183 -555q4 -354 179 -547q174 -193 470 -195q130 2 218 40t161 93q26 17 42 17q22 0 33 -29q12 -29 17 -92h47q-4 76 -6 192t-2 300h-47q-14 -122 -33 -194q-19 -73 -62 -130q-61 -83 -158 -120t-192 -36q-202 1 -330 183
q-129 182 -133 526q3 336 121 527q119 191 322 194q107 0 202 -38q94 -39 160 -122q42 -51 62 -114q21 -63 41 -189h47q0 176 2 287t6 184h-47q-5 -63 -18 -92q-13 -30 -34 -30q-18 0 -40 18q-66 54 -155 92q-89 39 -222 41v0z" />
    <glyph glyph-name="Cacute" unicode="&#x106;" horiz-adv-x="1409" 
d="M964 1896q-60 -41 -134 -111q-73 -70 -210 -177l14 -27q156 77 252 111q96 35 160 71q28 19 41 40t13 41t-11 38q-11 16 -27 25t-36 9q-14 0 -30 -5q-15 -5 -32 -15v0zM760 1479q-291 -5 -468 -211q-178 -207 -183 -555q4 -354 179 -547q174 -193 470 -195q130 2 218 40
t161 93q26 17 42 17q22 0 33 -29q12 -29 17 -92h47q-4 76 -6 192t-2 300h-47q-14 -122 -33 -194q-19 -73 -62 -130q-61 -83 -158 -120t-192 -36q-202 1 -330 183q-129 182 -133 526q3 336 121 527q119 191 322 194q107 0 202 -38q94 -39 160 -122q42 -51 62 -114
q21 -63 41 -189h47q0 176 2 287t6 184h-47q-5 -63 -18 -92q-13 -30 -34 -30q-18 0 -40 18q-66 54 -155 92q-89 39 -222 41v0z" />
    <glyph glyph-name="Ccaron" unicode="&#x10c;" horiz-adv-x="1409" 
d="M1130 1896q-101 -26 -195 -65t-155 -78q-73 39 -190 78q-116 39 -242 65l-10 -28q135 -48 234 -119q100 -72 149 -152h37q49 80 148 152q100 71 235 119zM760 1479q-291 -5 -468 -211q-178 -207 -183 -555q4 -354 179 -547q174 -193 470 -195q130 2 218 40t161 93
q26 17 42 17q22 0 33 -29q12 -29 17 -92h47q-4 76 -6 192t-2 300h-47q-14 -122 -33 -194q-19 -73 -62 -130q-61 -83 -158 -120t-192 -36q-202 1 -330 183q-129 182 -133 526q3 336 121 527q119 191 322 194q107 0 202 -38q94 -39 160 -122q42 -51 62 -114q21 -63 41 -189h47
q0 176 2 287t6 184h-47q-5 -63 -18 -92q-13 -30 -34 -30q-18 0 -40 18q-66 54 -155 92q-89 39 -222 41v0z" />
    <glyph glyph-name="Ccedilla" unicode="&#xc7;" horiz-adv-x="1409" 
d="M1221 492q-14 -122 -33 -194q-19 -73 -62 -130q-61 -83 -158 -120t-192 -36q-202 1 -330 183q-129 182 -133 526q3 336 121 527q119 191 322 194q107 0 202 -38q94 -39 160 -122q42 -51 62 -114q21 -63 41 -189h47q0 176 2 287t6 184h-47q-5 -63 -18 -92q-13 -30 -34 -30
q-18 0 -40 18q-66 54 -155 92q-89 39 -222 41q-291 -5 -468 -211q-178 -207 -183 -555q4 -343 168 -534q163 -192 443 -207l-56 -169q25 8 53 12q29 3 47 3q41 0 64 -14q22 -15 22 -44q-4 -54 -62 -73q-58 -20 -122 -19q-25 0 -46 2t-32 4l-8 -36q28 -10 70 -16
q43 -7 100 -7q79 -1 152 35q74 36 79 121q-1 46 -34 71t-91 25q-34 0 -64 -4q-31 -4 -57 -10l41 118q122 4 206 42t155 91q26 17 42 17q22 0 33 -29q12 -29 17 -92h47q-4 76 -6 192t-2 300h-47z" />
    <glyph glyph-name="Ccircumflex" unicode="&#x108;" horiz-adv-x="1409" 
d="M727 1876q-49 -79 -149 -151q-99 -72 -234 -119l10 -29q101 27 195 66q94 38 155 77q73 -39 190 -77q116 -39 242 -66l11 29q-135 47 -235 119q-99 72 -148 151h-37zM760 1479q-291 -5 -468 -211q-178 -207 -183 -555q4 -354 179 -547q174 -193 470 -195q130 2 218 40
t161 93q26 17 42 17q22 0 33 -29q12 -29 17 -92h47q-4 76 -6 192t-2 300h-47q-14 -122 -33 -194q-19 -73 -62 -130q-61 -83 -158 -120t-192 -36q-202 1 -330 183q-129 182 -133 526q3 336 121 527q119 191 322 194q107 0 202 -38q94 -39 160 -122q42 -51 62 -114
q21 -63 41 -189h47q0 176 2 287t6 184h-47q-5 -63 -18 -92q-13 -30 -34 -30q-18 0 -40 18q-66 54 -155 92q-89 39 -222 41v0z" />
    <glyph glyph-name="Cdotaccent" unicode="&#x10a;" horiz-adv-x="1409" 
d="M772 1843q-55 -1 -92 -38q-38 -38 -39 -93q1 -55 39 -92q37 -38 92 -39q55 1 92 39q37 37 39 92q-2 55 -39 93q-37 37 -92 38v0zM760 1479q-291 -5 -468 -211q-178 -207 -183 -555q4 -354 179 -547q174 -193 470 -195q130 2 218 40t161 93q26 17 42 17q22 0 33 -29
q12 -29 17 -92h47q-4 76 -6 192t-2 300h-47q-14 -122 -33 -194q-19 -73 -62 -130q-61 -83 -158 -120t-192 -36q-202 1 -330 183q-129 182 -133 526q3 336 121 527q119 191 322 194q107 0 202 -38q94 -39 160 -122q42 -51 62 -114q21 -63 41 -189h47q0 176 2 287t6 184h-47
q-5 -63 -18 -92q-13 -30 -34 -30q-18 0 -40 18q-66 54 -155 92q-89 39 -222 41v0z" />
    <glyph glyph-name="D" unicode="D" horiz-adv-x="1481" 
d="M645 1450q-62 0 -148 -2q-87 -2 -161 -4h-25q-12 -1 -25 -1q-58 0 -111 2q-53 3 -89 5v-41q102 -1 135 -34q34 -34 31 -142v-1016q3 -108 -31 -142q-33 -33 -135 -34v-41q44 3 112 5q68 1 142 1q70 0 153 -3q84 -3 134 -3q355 5 547 203q192 199 194 538q1 344 -178 526
q-180 182 -545 183v0zM594 1413q314 1 444 -168q129 -168 125 -512q6 -336 -116 -515q-123 -179 -451 -181q-93 -2 -125 34q-31 37 -29 142v1024q-2 104 29 141t123 35v0z" />
    <glyph glyph-name="Eth" unicode="&#xd0;" horiz-adv-x="1483" 
d="M647 1450q-62 0 -148 -2q-87 -2 -161 -4h-25q-12 -1 -25 -1q-58 0 -111 2q-53 3 -89 5v-41q102 -1 135 -34q34 -34 31 -142v-483h-166v-41h166v-492q3 -108 -31 -142q-33 -33 -135 -34v-41q44 3 112 5q68 1 142 1q70 0 153 -3q84 -3 134 -3q355 5 547 203
q192 199 194 538q1 344 -178 526q-180 182 -545 183v0zM598 37q-93 -2 -125 34q-31 37 -29 142v496h285v41h-285v487q-2 104 29 141t123 35q314 1 444 -168q129 -168 125 -512q6 -336 -116 -515q-123 -179 -451 -181v0z" />
    <glyph glyph-name="Dcaron" unicode="&#x10e;" horiz-adv-x="1481" 
d="M1030 1896q-101 -26 -195 -65t-155 -78q-73 39 -190 78q-116 39 -242 65l-10 -28q135 -48 234 -119q100 -72 149 -152h37q49 80 148 152q100 71 235 119zM645 1450q-62 0 -148 -2q-87 -2 -161 -4h-25q-12 -1 -25 -1q-58 0 -111 2q-53 3 -89 5v-41q102 -1 135 -34
q34 -34 31 -142v-1016q3 -108 -31 -142q-33 -33 -135 -34v-41q44 3 112 5q68 1 142 1q70 0 153 -3q84 -3 134 -3q355 5 547 203q192 199 194 538q1 344 -178 526q-180 182 -545 183v0zM594 1413q314 1 444 -168q129 -168 125 -512q6 -336 -116 -515q-123 -179 -451 -181
q-93 -2 -125 34q-31 37 -29 142v1024q-2 104 29 141t123 35v0z" />
    <glyph glyph-name="Dcroat" unicode="&#x110;" horiz-adv-x="1483" 
d="M647 1450q-62 0 -148 -2q-87 -2 -161 -4h-25q-12 -1 -25 -1q-58 0 -111 2q-53 3 -89 5v-41q102 -1 135 -34q34 -34 31 -142v-483h-166v-41h166v-492q3 -108 -31 -142q-33 -33 -135 -34v-41q44 3 112 5q68 1 142 1q70 0 153 -3q84 -3 134 -3q355 5 547 203
q192 199 194 538q1 344 -178 526q-180 182 -545 183v0zM598 37q-93 -2 -125 34q-31 37 -29 142v496h285v41h-285v487q-2 104 29 141t123 35q314 1 444 -168q129 -168 125 -512q6 -336 -116 -515q-123 -179 -451 -181v0z" />
    <glyph glyph-name="E" unicode="E" horiz-adv-x="1247" 
d="M1135 262q0 43 2 82q1 38 4 66h-47q-16 -201 -83 -283q-67 -83 -253 -80h-150q-102 -3 -135 29q-34 33 -31 141v492h136q128 -5 159 -86q31 -82 37 -185h47q-7 114 -10 179q-2 64 -2 112v46q-1 24 -1 52q0 35 1 82q2 46 6 111h-47q-6 -81 -34 -172q-29 -90 -156 -98h-136
v483q-3 108 31 141q33 32 135 29h170q157 3 209 -70q51 -73 66 -252h47q-3 24 -4 57q-2 33 -2 70t3 103q4 65 11 139q-98 -4 -215 -5q-116 -1 -213 -1q-99 0 -268 1q-168 1 -326 5v-41q102 -1 135 -34q34 -34 31 -142v-1016q3 -108 -31 -142q-33 -33 -135 -34v-41
q158 4 326 5q169 1 268 1q106 0 234 -1q127 -1 235 -5q-7 80 -11 151q-3 71 -3 111v0z" />
    <glyph glyph-name="Eacute" unicode="&#xc9;" horiz-adv-x="1247" 
d="M928 1763q28 19 41 40t13 41t-11 38q-11 16 -27 25t-36 9q-14 0 -30 -5q-15 -5 -32 -15q-60 -41 -134 -111q-73 -70 -210 -177l14 -27q156 77 252 111q96 35 160 71v0zM1135 262q0 43 2 82q1 38 4 66h-47q-16 -201 -83 -283q-67 -83 -253 -80h-150q-102 -3 -135 29
q-34 33 -31 141v492h136q128 -5 159 -86q31 -82 37 -185h47q-7 114 -10 179q-2 64 -2 112v46q-1 24 -1 52q0 35 1 82q2 46 6 111h-47q-6 -81 -34 -172q-29 -90 -156 -98h-136v483q-3 108 31 141q33 32 135 29h170q157 3 209 -70q51 -73 66 -252h47q-3 24 -4 57q-2 33 -2 70
t3 103q4 65 11 139q-98 -4 -215 -5q-116 -1 -213 -1q-99 0 -268 1q-168 1 -326 5v-41q102 -1 135 -34q34 -34 31 -142v-1016q3 -108 -31 -142q-33 -33 -135 -34v-41q158 4 326 5q169 1 268 1q106 0 234 -1q127 -1 235 -5q-7 80 -11 151q-3 71 -3 111v0z" />
    <glyph glyph-name="Ebreve" unicode="&#x114;" horiz-adv-x="1247" 
d="M627 1602q157 5 258 79t149 158l-24 23q-48 -49 -142 -90q-94 -40 -241 -43q-147 2 -241 42q-93 40 -140 89l-27 -21q49 -84 150 -158q102 -74 258 -79v0zM1135 262q0 43 2 82q1 38 4 66h-47q-16 -201 -83 -283q-67 -83 -253 -80h-150q-102 -3 -135 29q-34 33 -31 141
v492h136q128 -5 159 -86q31 -82 37 -185h47q-7 114 -10 179q-2 64 -2 112v46q-1 24 -1 52q0 35 1 82q2 46 6 111h-47q-6 -81 -34 -172q-29 -90 -156 -98h-136v483q-3 108 31 141q33 32 135 29h170q157 3 209 -70q51 -73 66 -252h47q-3 24 -4 57q-2 33 -2 70t3 103
q4 65 11 139q-98 -4 -215 -5q-116 -1 -213 -1q-99 0 -268 1q-168 1 -326 5v-41q102 -1 135 -34q34 -34 31 -142v-1016q3 -108 -31 -142q-33 -33 -135 -34v-41q158 4 326 5q169 1 268 1q106 0 234 -1q127 -1 235 -5q-7 80 -11 151q-3 71 -3 111v0z" />
    <glyph glyph-name="Ecaron" unicode="&#x11a;" horiz-adv-x="1247" 
d="M640 1597q49 80 148 152q100 71 235 119l-11 28q-101 -26 -195 -65t-155 -78q-73 39 -190 78q-116 39 -242 65l-10 -28q135 -48 234 -119q100 -72 149 -152h37zM1135 262q0 43 2 82q1 38 4 66h-47q-16 -201 -83 -283q-67 -83 -253 -80h-150q-102 -3 -135 29
q-34 33 -31 141v492h136q128 -5 159 -86q31 -82 37 -185h47q-7 114 -10 179q-2 64 -2 112v46q-1 24 -1 52q0 35 1 82q2 46 6 111h-47q-6 -81 -34 -172q-29 -90 -156 -98h-136v483q-3 108 31 141q33 32 135 29h170q157 3 209 -70q51 -73 66 -252h47q-3 24 -4 57q-2 33 -2 70
t3 103q4 65 11 139q-98 -4 -215 -5q-116 -1 -213 -1q-99 0 -268 1q-168 1 -326 5v-41q102 -1 135 -34q34 -34 31 -142v-1016q3 -108 -31 -142q-33 -33 -135 -34v-41q158 4 326 5q169 1 268 1q106 0 234 -1q127 -1 235 -5q-7 80 -11 151q-3 71 -3 111v0z" />
    <glyph glyph-name="Ecircumflex" unicode="&#xca;" horiz-adv-x="1247" 
d="M586 1720q73 -39 190 -77q116 -39 242 -66l11 29q-135 47 -235 119q-99 72 -148 151h-37q-49 -79 -149 -151q-99 -72 -234 -119l10 -29q101 27 195 66q94 38 155 77v0zM1135 262q0 43 2 82q1 38 4 66h-47q-16 -201 -83 -283q-67 -83 -253 -80h-150q-102 -3 -135 29
q-34 33 -31 141v492h136q128 -5 159 -86q31 -82 37 -185h47q-7 114 -10 179q-2 64 -2 112v46q-1 24 -1 52q0 35 1 82q2 46 6 111h-47q-6 -81 -34 -172q-29 -90 -156 -98h-136v483q-3 108 31 141q33 32 135 29h170q157 3 209 -70q51 -73 66 -252h47q-3 24 -4 57q-2 33 -2 70
t3 103q4 65 11 139q-98 -4 -215 -5q-116 -1 -213 -1q-99 0 -268 1q-168 1 -326 5v-41q102 -1 135 -34q34 -34 31 -142v-1016q3 -108 -31 -142q-33 -33 -135 -34v-41q158 4 326 5q169 1 268 1q106 0 234 -1q127 -1 235 -5q-7 80 -11 151q-3 71 -3 111v0z" />
    <glyph glyph-name="Edieresis" unicode="&#xcb;" horiz-adv-x="1247" 
d="M410 1581q49 1 83 35q34 33 36 84q-2 49 -36 83t-83 36q-51 -2 -84 -36q-34 -34 -35 -83q1 -51 35 -84q33 -34 84 -35v0zM844 1581q49 1 84 35q34 33 35 84q-1 49 -35 83q-35 34 -84 36q-50 -2 -84 -36t-35 -83q1 -51 35 -84q34 -34 84 -35v0zM1135 262q0 43 2 82
q1 38 4 66h-47q-16 -201 -83 -283q-67 -83 -253 -80h-150q-102 -3 -135 29q-34 33 -31 141v492h136q128 -5 159 -86q31 -82 37 -185h47q-7 114 -10 179q-2 64 -2 112v46q-1 24 -1 52q0 35 1 82q2 46 6 111h-47q-6 -81 -34 -172q-29 -90 -156 -98h-136v483q-3 108 31 141
q33 32 135 29h170q157 3 209 -70q51 -73 66 -252h47q-3 24 -4 57q-2 33 -2 70t3 103q4 65 11 139q-98 -4 -215 -5q-116 -1 -213 -1q-99 0 -268 1q-168 1 -326 5v-41q102 -1 135 -34q34 -34 31 -142v-1016q3 -108 -31 -142q-33 -33 -135 -34v-41q158 4 326 5q169 1 268 1
q106 0 234 -1q127 -1 235 -5q-7 80 -11 151q-3 71 -3 111v0z" />
    <glyph glyph-name="Edotaccent" unicode="&#x116;" horiz-adv-x="1247" 
d="M654 1581q55 1 92 39q37 37 39 92q-2 55 -39 93q-37 37 -92 38q-55 -1 -92 -38q-38 -38 -39 -93q1 -55 39 -92q37 -38 92 -39v0zM1135 262q0 43 2 82q1 38 4 66h-47q-16 -201 -83 -283q-67 -83 -253 -80h-150q-102 -3 -135 29q-34 33 -31 141v492h136q128 -5 159 -86
q31 -82 37 -185h47q-7 114 -10 179q-2 64 -2 112v46q-1 24 -1 52q0 35 1 82q2 46 6 111h-47q-6 -81 -34 -172q-29 -90 -156 -98h-136v483q-3 108 31 141q33 32 135 29h170q157 3 209 -70q51 -73 66 -252h47q-3 24 -4 57q-2 33 -2 70t3 103q4 65 11 139q-98 -4 -215 -5
q-116 -1 -213 -1q-99 0 -268 1q-168 1 -326 5v-41q102 -1 135 -34q34 -34 31 -142v-1016q3 -108 -31 -142q-33 -33 -135 -34v-41q158 4 326 5q169 1 268 1q106 0 234 -1q127 -1 235 -5q-7 80 -11 151q-3 71 -3 111v0z" />
    <glyph glyph-name="Egrave" unicode="&#xc8;" horiz-adv-x="1247" 
d="M338 1763q64 -36 160 -71q96 -34 252 -111l14 27q-137 107 -210 177q-74 70 -134 111q-17 10 -32 15q-16 5 -30 5q-20 0 -36 -9t-27 -25q-11 -18 -11 -38t13 -41t41 -40v0zM1135 262q0 43 2 82q1 38 4 66h-47q-16 -201 -83 -283q-67 -83 -253 -80h-150q-102 -3 -135 29
q-34 33 -31 141v492h136q128 -5 159 -86q31 -82 37 -185h47q-7 114 -10 179q-2 64 -2 112v46q-1 24 -1 52q0 35 1 82q2 46 6 111h-47q-6 -81 -34 -172q-29 -90 -156 -98h-136v483q-3 108 31 141q33 32 135 29h170q157 3 209 -70q51 -73 66 -252h47q-3 24 -4 57q-2 33 -2 70
t3 103q4 65 11 139q-98 -4 -215 -5q-116 -1 -213 -1q-99 0 -268 1q-168 1 -326 5v-41q102 -1 135 -34q34 -34 31 -142v-1016q3 -108 -31 -142q-33 -33 -135 -34v-41q158 4 326 5q169 1 268 1q106 0 234 -1q127 -1 235 -5q-7 80 -11 151q-3 71 -3 111v0z" />
    <glyph glyph-name="Emacron" unicode="&#x112;" horiz-adv-x="1247" 
d="M987 1677v52h-721v-52h721zM1135 262q0 43 2 82q1 38 4 66h-47q-16 -201 -83 -283q-67 -83 -253 -80h-150q-102 -3 -135 29q-34 33 -31 141v492h136q128 -5 159 -86q31 -82 37 -185h47q-7 114 -10 179q-2 64 -2 112v46q-1 24 -1 52q0 35 1 82q2 46 6 111h-47
q-6 -81 -34 -172q-29 -90 -156 -98h-136v483q-3 108 31 141q33 32 135 29h170q157 3 209 -70q51 -73 66 -252h47q-3 24 -4 57q-2 33 -2 70t3 103q4 65 11 139q-98 -4 -215 -5q-116 -1 -213 -1q-99 0 -268 1q-168 1 -326 5v-41q102 -1 135 -34q34 -34 31 -142v-1016
q3 -108 -31 -142q-33 -33 -135 -34v-41q158 4 326 5q169 1 268 1q106 0 234 -1q127 -1 235 -5q-7 80 -11 151q-3 71 -3 111v0z" />
    <glyph glyph-name="Eogonek" unicode="&#x118;" horiz-adv-x="1247" 
d="M1151 -219q-21 -29 -53 -48q-33 -19 -72 -20q-42 1 -65 25q-23 25 -23 65q-2 52 41 107t152 91l18 -1q0 3 -1 6q-7 78 -10 148q-3 69 -3 108q0 43 2 82q1 38 4 66h-47q-16 -201 -83 -283q-67 -83 -253 -80h-150q-102 -3 -135 29q-34 33 -31 141v492h136q128 -5 159 -86
q31 -82 37 -185h47q-7 114 -10 179q-2 64 -2 112v46q-1 24 -1 52q0 35 1 82q2 46 6 111h-47q-6 -81 -34 -172q-29 -90 -156 -98h-136v483q-3 108 31 141q33 32 135 29h170q157 3 209 -70q51 -73 66 -252h47q-3 24 -4 57q-2 33 -2 70t3 103q4 65 11 139q-98 -4 -215 -5
q-116 -1 -213 -1q-99 0 -268 1q-168 1 -326 5v-41q102 -1 135 -34q34 -34 31 -142v-1016q3 -108 -31 -142q-33 -33 -135 -34v-41q158 4 326 5q169 1 268 1h185q101 -1 197 -3q-132 -45 -203 -110q-70 -66 -71 -145q1 -61 44 -96q44 -36 118 -37q68 0 126 34q58 33 105 105z
" />
    <glyph glyph-name="F" unicode="F" horiz-adv-x="1165" 
d="M1108 1450q-98 -4 -215 -5q-116 -1 -213 -1q-99 0 -268 1q-168 1 -326 5v-41q102 -1 135 -34q34 -34 31 -142v-1016q3 -108 -31 -142q-33 -33 -135 -34v-41q44 3 113 5q68 1 149 1q85 0 166 -1q80 -2 135 -5v41q-126 1 -168 34q-42 34 -39 142v471h150q128 -5 159 -86
t37 -184h48q-8 114 -11 178q-2 65 -2 113v46q-1 23 -1 51q0 36 1 82q2 47 6 111h-47q-6 -81 -34 -172q-29 -90 -156 -98h-150v504q-3 108 31 141q33 32 135 29h129q185 3 243 -85q58 -87 73 -298h47q-3 33 -4 75q-2 43 -2 93q0 40 3 111q4 71 11 151v0z" />
    <glyph glyph-name="G" unicode="G" horiz-adv-x="1440" 
d="M770 1479q-291 -4 -472 -210q-182 -207 -187 -569q2 -345 177 -535q174 -191 494 -194q99 1 176 30t144 81q30 23 43 29q13 7 24 6q26 -3 40 -41t16 -76h41v406q-2 109 18 142t86 34v41q-37 -4 -91 -5q-54 -2 -122 -2q-72 0 -152 2q-80 1 -137 5v-41q126 -1 168 -39
q42 -37 39 -158v-197q1 -37 -10 -62q-12 -25 -49 -50q-31 -23 -85 -43t-128 -21q-250 -2 -369 171q-120 173 -119 540q3 334 124 525q120 190 327 194q105 -1 198 -42q94 -42 156 -118q47 -59 68 -138q22 -78 35 -165h47q0 176 2 287t6 184h-47q-6 -64 -19 -95
q-12 -30 -32 -30q-10 0 -19 6q-10 5 -22 15q-70 54 -154 92q-84 39 -215 41v0z" />
    <glyph glyph-name="Gacute" unicode="&#x1f4;" horiz-adv-x="1440" 
d="M958 1896q-60 -41 -134 -111q-73 -70 -210 -177l14 -27q156 77 252 111q96 35 160 71q28 19 41 40t13 41t-11 38q-11 16 -27 25t-36 9q-14 0 -30 -5q-15 -5 -32 -15v0zM770 1479q-291 -4 -472 -210q-182 -207 -187 -569q2 -345 177 -535q174 -191 494 -194q99 1 176 30
t144 81q30 23 43 29q13 7 24 6q26 -3 40 -41t16 -76h41v406q-2 109 18 142t86 34v41q-37 -4 -91 -5q-54 -2 -122 -2q-72 0 -152 2q-80 1 -137 5v-41q126 -1 168 -39q42 -37 39 -158v-197q1 -37 -10 -62q-12 -25 -49 -50q-31 -23 -85 -43t-128 -21q-250 -2 -369 171
q-120 173 -119 540q3 334 124 525q120 190 327 194q105 -1 198 -42q94 -42 156 -118q47 -59 68 -138q22 -78 35 -165h47q0 176 2 287t6 184h-47q-6 -64 -19 -95q-12 -30 -32 -30q-10 0 -19 6q-10 5 -22 15q-70 54 -154 92q-84 39 -215 41v0z" />
    <glyph glyph-name="Gbreve" unicode="&#x11e;" horiz-adv-x="1440" 
d="M1122 1862q-48 -49 -142 -90q-94 -40 -241 -43q-147 2 -241 42q-93 40 -140 89l-27 -21q49 -84 150 -158q102 -74 258 -79q157 5 258 79t149 158zM770 1479q-291 -4 -472 -210q-182 -207 -187 -569q2 -345 177 -535q174 -191 494 -194q99 1 176 30t144 81q30 23 43 29
q13 7 24 6q26 -3 40 -41t16 -76h41v406q-2 109 18 142t86 34v41q-37 -4 -91 -5q-54 -2 -122 -2q-72 0 -152 2q-80 1 -137 5v-41q126 -1 168 -39q42 -37 39 -158v-197q1 -37 -10 -62q-12 -25 -49 -50q-31 -23 -85 -43t-128 -21q-250 -2 -369 171q-120 173 -119 540
q3 334 124 525q120 190 327 194q105 -1 198 -42q94 -42 156 -118q47 -59 68 -138q22 -78 35 -165h47q0 176 2 287t6 184h-47q-6 -64 -19 -95q-12 -30 -32 -30q-10 0 -19 6q-10 5 -22 15q-70 54 -154 92q-84 39 -215 41v0z" />
    <glyph glyph-name="Gcircumflex" unicode="&#x11c;" horiz-adv-x="1440" 
d="M721 1876q-49 -79 -149 -151q-99 -72 -234 -119l10 -29q101 27 195 66q94 38 155 77q73 -39 190 -77q116 -39 242 -66l11 29q-135 47 -235 119q-99 72 -148 151h-37zM770 1479q-291 -4 -472 -210q-182 -207 -187 -569q2 -345 177 -535q174 -191 494 -194q99 1 176 30
t144 81q30 23 43 29q13 7 24 6q26 -3 40 -41t16 -76h41v406q-2 109 18 142t86 34v41q-37 -4 -91 -5q-54 -2 -122 -2q-72 0 -152 2q-80 1 -137 5v-41q126 -1 168 -39q42 -37 39 -158v-197q1 -37 -10 -62q-12 -25 -49 -50q-31 -23 -85 -43t-128 -21q-250 -2 -369 171
q-120 173 -119 540q3 334 124 525q120 190 327 194q105 -1 198 -42q94 -42 156 -118q47 -59 68 -138q22 -78 35 -165h47q0 176 2 287t6 184h-47q-6 -64 -19 -95q-12 -30 -32 -30q-10 0 -19 6q-10 5 -22 15q-70 54 -154 92q-84 39 -215 41v0z" />
    <glyph glyph-name="Gcommaaccent" unicode="&#x122;" horiz-adv-x="1440" 
d="M770 1479q-291 -4 -472 -210q-182 -207 -187 -569q2 -345 177 -535q174 -191 494 -194q99 1 176 30t144 81q30 23 43 29q13 7 24 6q26 -3 40 -41t16 -76h41v406q-2 109 18 142t86 34v41q-37 -4 -91 -5q-54 -2 -122 -2q-72 0 -152 2q-80 1 -137 5v-41q126 -1 168 -39
q42 -37 39 -158v-197q1 -37 -10 -62q-12 -25 -49 -50q-31 -23 -85 -43t-128 -21q-250 -2 -369 171q-120 173 -119 540q3 334 124 525q120 190 327 194q105 -1 198 -42q94 -42 156 -118q47 -59 68 -138q22 -78 35 -165h47q0 176 2 287t6 184h-47q-6 -64 -19 -95
q-12 -30 -32 -30q-10 0 -19 6q-10 5 -22 15q-70 54 -154 92q-84 39 -215 41v0zM760 -141q-49 -1 -81 -31q-33 -30 -34 -78q1 -54 31 -82t76 -28q26 0 48 9t38 23q-2 -49 -40 -82t-87 -47l14 -37q96 35 133 86q37 50 35 123q-1 62 -36 102q-36 41 -97 42v0z" />
    <glyph glyph-name="Gdotaccent" unicode="&#x120;" horiz-adv-x="1440" 
d="M766 1843q-55 -1 -92 -38q-38 -38 -39 -93q1 -55 39 -92q37 -38 92 -39q55 1 92 39q37 37 39 92q-2 55 -39 93q-37 37 -92 38v0zM770 1479q-291 -4 -472 -210q-182 -207 -187 -569q2 -345 177 -535q174 -191 494 -194q99 1 176 30t144 81q30 23 43 29q13 7 24 6
q26 -3 40 -41t16 -76h41v406q-2 109 18 142t86 34v41q-37 -4 -91 -5q-54 -2 -122 -2q-72 0 -152 2q-80 1 -137 5v-41q126 -1 168 -39q42 -37 39 -158v-197q1 -37 -10 -62q-12 -25 -49 -50q-31 -23 -85 -43t-128 -21q-250 -2 -369 171q-120 173 -119 540q3 334 124 525
q120 190 327 194q105 -1 198 -42q94 -42 156 -118q47 -59 68 -138q22 -78 35 -165h47q0 176 2 287t6 184h-47q-6 -64 -19 -95q-12 -30 -32 -30q-10 0 -19 6q-10 5 -22 15q-70 54 -154 92q-84 39 -215 41v0z" />
    <glyph glyph-name="H" unicode="H" horiz-adv-x="1550" 
d="M1464 1450q-44 -3 -112 -4q-69 -2 -150 -2q-72 0 -141 2q-70 1 -119 4v-41q102 -1 135 -34q34 -34 31 -142v-483h-666v483q-3 108 31 142q33 33 135 34v41q-49 -3 -118 -4q-70 -2 -142 -2q-81 0 -149 2q-69 1 -113 4v-41q102 -1 135 -34q34 -34 31 -142v-1016
q3 -108 -31 -142q-33 -33 -135 -34v-41q44 3 113 5q68 1 149 1q72 0 142 -1q69 -2 118 -5v41q-102 1 -135 34q-34 34 -31 142v492h666v-492q3 -108 -31 -142q-33 -33 -135 -34v-41q49 3 119 5q69 1 141 1q81 0 150 -1q68 -2 112 -5v41q-102 1 -135 34q-34 34 -31 142v1016
q-3 108 31 142q33 33 135 34v41z" />
    <glyph glyph-name="Hbar" unicode="&#x126;" horiz-adv-x="1550" 
d="M1464 1450q-44 -3 -112 -4q-69 -2 -150 -2q-72 0 -141 2q-70 1 -119 4v-41q102 -1 135 -34q34 -34 31 -142v-141h-666v141q-3 108 31 142q33 33 135 34v41q-49 -3 -118 -4q-70 -2 -142 -2q-81 0 -149 2q-69 1 -113 4v-41q102 -1 135 -34q34 -34 31 -142v-141h-166v-41
h166v-834q3 -108 -31 -142q-33 -33 -135 -34v-41q44 3 113 5q68 1 149 1q72 0 142 -1q69 -2 118 -5v41q-102 1 -135 34q-34 34 -31 142v492h666v-492q3 -108 -31 -142q-33 -33 -135 -34v-41q49 3 119 5q69 1 141 1q81 0 150 -1q68 -2 112 -5v41q-102 1 -135 34
q-34 34 -31 142v834h166v41h-166v141q-3 108 31 142q33 33 135 34v41zM1108 1051v-301h-666v301h666z" />
    <glyph glyph-name="Hcircumflex" unicode="&#x124;" horiz-adv-x="1550" 
d="M762 1876q-49 -79 -149 -151q-99 -72 -234 -119l10 -29q101 27 195 66q94 38 155 77q73 -39 190 -77q116 -39 242 -66l11 29q-135 47 -235 119q-99 72 -148 151h-37zM1464 1450q-44 -3 -112 -4q-69 -2 -150 -2q-72 0 -141 2q-70 1 -119 4v-41q102 -1 135 -34
q34 -34 31 -142v-483h-666v483q-3 108 31 142q33 33 135 34v41q-49 -3 -118 -4q-70 -2 -142 -2q-81 0 -149 2q-69 1 -113 4v-41q102 -1 135 -34q34 -34 31 -142v-1016q3 -108 -31 -142q-33 -33 -135 -34v-41q44 3 113 5q68 1 149 1q72 0 142 -1q69 -2 118 -5v41
q-102 1 -135 34q-34 34 -31 142v492h666v-492q3 -108 -31 -142q-33 -33 -135 -34v-41q49 3 119 5q69 1 141 1q81 0 150 -1q68 -2 112 -5v41q-102 1 -135 34q-34 34 -31 142v1016q-3 108 31 142q33 33 135 34v41z" />
    <glyph glyph-name="I" unicode="I" 
d="M608 1450q-49 -3 -118 -4q-70 -2 -142 -2q-81 0 -149 2q-69 1 -113 4v-41q102 -1 135 -34q34 -34 31 -142v-1016q3 -108 -31 -142q-33 -33 -135 -34v-41q44 3 113 5q68 1 149 1q72 0 142 -1q69 -2 118 -5v41q-102 1 -135 34q-34 34 -31 142v1016q-3 108 31 142
q33 33 135 34v41z" />
    <glyph glyph-name="IJ" unicode="&#x132;" horiz-adv-x="1325" 
d="M608 1450q-49 -3 -118 -4q-70 -2 -142 -2q-81 0 -149 2q-69 1 -113 4v-41q102 -1 135 -34q34 -34 31 -142v-1016q3 -108 -31 -142q-33 -33 -135 -34v-41q44 3 113 5q68 1 149 1q72 0 142 -1q69 -2 118 -5v41q-102 1 -135 34q-34 34 -31 142v1016q-3 108 31 142
q33 33 135 34v41zM1253 1450q-49 -3 -119 -4q-69 -2 -141 -2q-81 0 -150 2q-68 1 -112 4v-41q102 -1 135 -34q34 -34 31 -142v-936q0 -207 -7 -308q-7 -102 -28 -161q-28 -82 -92 -128q-64 -45 -154 -46q-29 0 -68 6q-40 7 -63 27q39 8 62 34t24 70q-1 53 -32 82
q-32 29 -81 29q-48 -1 -78 -30q-29 -30 -30 -79q0 -43 24 -79t74 -62q28 -15 71 -26q44 -10 101 -11q176 3 287 96q110 93 145 238q24 107 30 255q6 147 5 279v750q-3 108 31 142q33 33 135 34v41z" />
    <glyph glyph-name="Iacute" unicode="&#xcd;" 
d="M567 1896q-60 -41 -134 -111q-73 -70 -210 -177l14 -27q156 77 252 111q96 35 160 71q28 19 41 40t13 41t-11 38q-11 16 -27 25t-36 9q-14 0 -30 -5q-15 -5 -32 -15v0zM608 1450q-49 -3 -118 -4q-70 -2 -142 -2q-81 0 -149 2q-69 1 -113 4v-41q102 -1 135 -34
q34 -34 31 -142v-1016q3 -108 -31 -142q-33 -33 -135 -34v-41q44 3 113 5q68 1 149 1q72 0 142 -1q69 -2 118 -5v41q-102 1 -135 34q-34 34 -31 142v1016q-3 108 31 142q33 33 135 34v41z" />
    <glyph glyph-name="Ibreve" unicode="&#x12c;" 
d="M731 1862q-48 -49 -142 -90q-94 -40 -241 -43q-147 2 -241 42q-93 40 -140 89l-27 -21q49 -84 150 -158q102 -74 258 -79q157 5 258 79t149 158zM608 1450q-49 -3 -118 -4q-70 -2 -142 -2q-81 0 -149 2q-69 1 -113 4v-41q102 -1 135 -34q34 -34 31 -142v-1016
q3 -108 -31 -142q-33 -33 -135 -34v-41q44 3 113 5q68 1 149 1q72 0 142 -1q69 -2 118 -5v41q-102 1 -135 34q-34 34 -31 142v1016q-3 108 31 142q33 33 135 34v41z" />
    <glyph glyph-name="Icircumflex" unicode="&#xce;" 
d="M330 1876q-49 -79 -149 -151q-99 -72 -234 -119l10 -29q101 27 195 66q94 38 155 77q73 -39 190 -77q116 -39 242 -66l11 29q-135 47 -235 119q-99 72 -148 151h-37zM608 1450q-49 -3 -118 -4q-70 -2 -142 -2q-81 0 -149 2q-69 1 -113 4v-41q102 -1 135 -34
q34 -34 31 -142v-1016q3 -108 -31 -142q-33 -33 -135 -34v-41q44 3 113 5q68 1 149 1q72 0 142 -1q69 -2 118 -5v41q-102 1 -135 34q-34 34 -31 142v1016q-3 108 31 142q33 33 135 34v41z" />
    <glyph glyph-name="Idieresis" unicode="&#xcf;" 
d="M131 1819q-51 -2 -84 -36q-34 -34 -35 -83q1 -51 35 -84q33 -34 84 -35q49 1 83 35q34 33 36 84q-2 49 -36 83t-83 36v0zM565 1819q-50 -2 -84 -36t-35 -83q1 -51 35 -84q34 -34 84 -35q49 1 84 35q34 33 35 84q-1 49 -35 83q-35 34 -84 36v0zM608 1450q-49 -3 -118 -4
q-70 -2 -142 -2q-81 0 -149 2q-69 1 -113 4v-41q102 -1 135 -34q34 -34 31 -142v-1016q3 -108 -31 -142q-33 -33 -135 -34v-41q44 3 113 5q68 1 149 1q72 0 142 -1q69 -2 118 -5v41q-102 1 -135 34q-34 34 -31 142v1016q-3 108 31 142q33 33 135 34v41z" />
    <glyph glyph-name="Idotaccent" unicode="&#x130;" 
d="M348 1964q-55 -2 -92 -39q-38 -37 -39 -92q1 -55 39 -92q37 -38 92 -39q55 1 92 39q37 37 39 92q-2 55 -39 92t-92 39v0zM608 1450q-49 -3 -118 -4q-70 -2 -142 -2q-81 0 -149 2q-69 1 -113 4v-41q102 -1 135 -34q34 -34 31 -142v-1016q3 -108 -31 -142q-33 -33 -135 -34
v-41q44 3 113 5q68 1 149 1q72 0 142 -1q69 -2 118 -5v41q-102 1 -135 34q-34 34 -31 142v1016q-3 108 31 142q33 33 135 34v41z" />
    <glyph glyph-name="Igrave" unicode="&#xcc;" 
d="M141 1896q-17 10 -32 15q-16 5 -30 5q-20 0 -36 -9t-27 -25q-11 -18 -11 -38t13 -41t41 -40q64 -36 160 -71q96 -34 252 -111l14 27q-137 107 -210 177q-74 70 -134 111v0zM608 1450q-49 -3 -118 -4q-70 -2 -142 -2q-81 0 -149 2q-69 1 -113 4v-41q102 -1 135 -34
q34 -34 31 -142v-1016q3 -108 -31 -142q-33 -33 -135 -34v-41q44 3 113 5q68 1 149 1q72 0 142 -1q69 -2 118 -5v41q-102 1 -135 34q-34 34 -31 142v1016q-3 108 31 142q33 33 135 34v41z" />
    <glyph glyph-name="Imacron" unicode="&#x12a;" 
d="M708 1677v52h-721v-52h721zM608 1450q-49 -3 -118 -4q-70 -2 -142 -2q-81 0 -149 2q-69 1 -113 4v-41q102 -1 135 -34q34 -34 31 -142v-1016q3 -108 -31 -142q-33 -33 -135 -34v-41q44 3 113 5q68 1 149 1q72 0 142 -1q69 -2 118 -5v41q-102 1 -135 34q-34 34 -31 142
v1016q-3 108 31 142q33 33 135 34v41z" />
    <glyph glyph-name="Iogonek" unicode="&#x12e;" 
d="M610 -219q-21 -29 -53 -48q-33 -19 -72 -20q-42 1 -65 25q-23 25 -23 65q-2 52 41 107t152 91l18 -1v41q-102 1 -135 34q-34 34 -31 142v1016q-3 108 31 142q33 33 135 34v41q-49 -3 -118 -4q-70 -2 -142 -2q-81 0 -149 2q-69 1 -113 4v-41q102 -1 135 -34
q34 -34 31 -142v-1016q3 -108 -31 -142q-33 -33 -135 -34v-41q44 3 113 5q68 1 149 1q45 0 89 -1q45 0 86 -1q-133 -45 -204 -110q-71 -66 -72 -146q1 -61 44 -96q44 -36 118 -37q68 0 126 34q58 33 105 105z" />
    <glyph glyph-name="Itilde" unicode="&#x128;" 
d="M182 1847q-88 -1 -152 -58t-75 -159l31 -6q18 65 51 91q33 25 76 24q103 -10 195 -79q91 -69 202 -79q89 1 152 58q64 57 75 159l-30 6q-19 -65 -52 -90t-75 -24q-104 10 -195 79q-92 68 -203 78v0zM608 1450q-49 -3 -118 -4q-70 -2 -142 -2q-81 0 -149 2q-69 1 -113 4
v-41q102 -1 135 -34q34 -34 31 -142v-1016q3 -108 -31 -142q-33 -33 -135 -34v-41q44 3 113 5q68 1 149 1q72 0 142 -1q69 -2 118 -5v41q-102 1 -135 34q-34 34 -31 142v1016q-3 108 31 142q33 33 135 34v41z" />
    <glyph glyph-name="J" unicode="J" horiz-adv-x="668" 
d="M596 1450q-49 -3 -119 -4q-69 -2 -141 -2q-81 0 -150 2q-68 1 -112 4v-41q102 -1 135 -34q34 -34 31 -142v-936q0 -207 -7 -308q-7 -102 -28 -161q-28 -82 -92 -128q-64 -45 -154 -46q-29 0 -68 6q-40 7 -63 27q39 8 62 34t24 70q-1 53 -32 82q-32 29 -81 29
q-48 -1 -78 -30q-29 -30 -30 -79q0 -43 24 -79t74 -62q28 -15 71 -26q44 -10 101 -11q176 3 287 96q110 93 145 238q24 107 30 255q6 147 5 279v750q-3 108 31 142q33 33 135 34v41z" />
    <glyph glyph-name="Jcircumflex" unicode="&#x134;" horiz-adv-x="668" 
d="M318 1876q-49 -79 -149 -151q-99 -72 -234 -119l10 -29q101 27 195 66q94 38 155 77q73 -39 190 -77q116 -39 242 -66l11 29q-135 47 -235 119q-99 72 -148 151h-37zM596 1450q-49 -3 -119 -4q-69 -2 -141 -2q-81 0 -150 2q-68 1 -112 4v-41q102 -1 135 -34
q34 -34 31 -142v-936q0 -207 -7 -308q-7 -102 -28 -161q-28 -82 -92 -128q-64 -45 -154 -46q-29 0 -68 6q-40 7 -63 27q39 8 62 34t24 70q-1 53 -32 82q-32 29 -81 29q-48 -1 -78 -30q-29 -30 -30 -79q0 -43 24 -79t74 -62q28 -15 71 -26q44 -10 101 -11q176 3 287 96
q110 93 145 238q24 107 30 255q6 147 5 279v750q-3 108 31 142q33 33 135 34v41z" />
    <glyph glyph-name="K" unicode="K" horiz-adv-x="1341" 
d="M684 832l334 428q58 74 119 108q60 33 123 41v41q-31 -3 -77 -4q-45 -2 -98 -2q-54 0 -115 2q-61 1 -120 4v-41q65 -2 96 -20q31 -19 31 -54q0 -34 -27 -83t-78 -113l-196 -250q-37 -49 -94 -80t-140 -35v459q-3 108 31 142q33 33 135 34v41q-49 -3 -118 -4
q-70 -2 -142 -2q-81 0 -149 2q-69 1 -113 4v-41q102 -1 135 -34q34 -34 31 -142v-1016q3 -108 -31 -142q-33 -33 -135 -34v-41q44 3 113 5q68 1 149 1q72 0 142 -1q69 -2 118 -5v41q-102 1 -135 34q-34 34 -31 142v516q68 -1 112 -30q45 -29 103 -119l299 -451
q21 -30 21 -49q0 -21 -23 -31q-24 -10 -71 -12v-41q74 4 125 5t86 1q53 0 123 -1q70 -2 122 -5v41q-62 15 -105 45q-42 29 -75 80z" />
    <glyph glyph-name="Kcommaaccent" unicode="&#x136;" horiz-adv-x="1341" 
d="M684 832l334 428q58 74 119 108q60 33 123 41v41q-31 -3 -77 -4q-45 -2 -98 -2q-54 0 -115 2q-61 1 -120 4v-41q65 -2 96 -20q31 -19 31 -54q0 -34 -27 -83t-78 -113l-196 -250q-37 -49 -94 -80t-140 -35v459q-3 108 31 142q33 33 135 34v41q-49 -3 -118 -4
q-70 -2 -142 -2q-81 0 -149 2q-69 1 -113 4v-41q102 -1 135 -34q34 -34 31 -142v-1016q3 -108 -31 -142q-33 -33 -135 -34v-41q44 3 113 5q68 1 149 1q72 0 142 -1q69 -2 118 -5v41q-102 1 -135 34q-34 34 -31 142v516q68 -1 112 -30q45 -29 103 -119l299 -451
q21 -30 21 -49q0 -21 -23 -31q-24 -10 -71 -12v-41q74 4 125 5t86 1q53 0 123 -1q70 -2 122 -5v41q-62 15 -105 45q-42 29 -75 80zM697 -141q-49 -1 -81 -31q-33 -30 -34 -78q1 -54 31 -82t76 -28q26 0 48 9t38 23q-2 -49 -40 -82t-87 -47l14 -37q96 35 133 86q37 50 35 123
q-1 62 -36 102q-36 41 -97 42v0z" />
    <glyph glyph-name="L" unicode="L" horiz-adv-x="1204" 
d="M608 1450q-49 -3 -118 -4q-70 -2 -142 -2q-81 0 -149 2q-69 1 -113 4v-41q102 -1 135 -34q34 -34 31 -142v-1016q3 -108 -31 -142q-33 -33 -135 -34v-41q158 4 326 5q169 1 268 1q106 0 234 -1q127 -1 235 -5q-7 80 -11 151q-3 71 -3 111q0 50 2 93q1 42 4 75h-47
q-16 -211 -83 -298q-67 -88 -253 -85h-150q-102 -3 -135 29q-34 33 -31 141v1016q-3 108 31 142q33 33 135 34v41z" />
    <glyph glyph-name="Lacute" unicode="&#x139;" horiz-adv-x="1204" 
d="M567 1896q-60 -41 -134 -111q-73 -70 -210 -177l14 -27q156 77 252 111q96 35 160 71q28 19 41 40t13 41t-11 38q-11 16 -27 25t-36 9q-14 0 -30 -5q-15 -5 -32 -15v0zM608 1450q-49 -3 -118 -4q-70 -2 -142 -2q-81 0 -149 2q-69 1 -113 4v-41q102 -1 135 -34
q34 -34 31 -142v-1016q3 -108 -31 -142q-33 -33 -135 -34v-41q158 4 326 5q169 1 268 1q106 0 234 -1q127 -1 235 -5q-7 80 -11 151q-3 71 -3 111q0 50 2 93q1 42 4 75h-47q-16 -211 -83 -298q-67 -88 -253 -85h-150q-102 -3 -135 29q-34 33 -31 141v1016q-3 108 31 142
q33 33 135 34v41z" />
    <glyph glyph-name="Lcaron" unicode="&#x13d;" horiz-adv-x="1204" 
d="M897 1462q-29 -8 -61 -12t-72 -4q-36 0 -84 4v-43q37 0 50 -21q12 -21 11 -61q1 -28 -8 -106t-33 -232l29 -8q82 147 130 246q47 98 48 164q0 19 -3 40q-2 22 -7 33v0zM608 1450q-49 -3 -118 -4q-70 -2 -142 -2q-81 0 -149 2q-69 1 -113 4v-41q102 -1 135 -34
q34 -34 31 -142v-1016q3 -108 -31 -142q-33 -33 -135 -34v-41q158 4 326 5q169 1 268 1q106 0 234 -1q127 -1 235 -5q-7 80 -11 151q-3 71 -3 111q0 50 2 93q1 42 4 75h-47q-16 -211 -83 -298q-67 -88 -253 -85h-150q-102 -3 -135 29q-34 33 -31 141v1016q-3 108 31 142
q33 33 135 34v41z" />
    <glyph glyph-name="Lcommaaccent" unicode="&#x13b;" horiz-adv-x="1204" 
d="M608 1450q-49 -3 -118 -4q-70 -2 -142 -2q-81 0 -149 2q-69 1 -113 4v-41q102 -1 135 -34q34 -34 31 -142v-1016q3 -108 -31 -142q-33 -33 -135 -34v-41q158 4 326 5q169 1 268 1q106 0 234 -1q127 -1 235 -5q-7 80 -11 151q-3 71 -3 111q0 50 2 93q1 42 4 75h-47
q-16 -211 -83 -298q-67 -88 -253 -85h-150q-102 -3 -135 29q-34 33 -31 141v1016q-3 108 31 142q33 33 135 34v41zM668 -141q-49 -1 -81 -31q-33 -30 -34 -78q1 -54 31 -82t76 -28q26 0 48 9t38 23q-2 -49 -40 -82t-87 -47l14 -37q96 35 133 86q37 50 35 123q-1 62 -36 102
q-36 41 -97 42v0z" />
    <glyph glyph-name="Ldot" unicode="&#x13f;" horiz-adv-x="1268" 
d="M608 1450q-49 -3 -118 -4q-70 -2 -142 -2q-81 0 -149 2q-69 1 -113 4v-41q102 -1 135 -34q34 -34 31 -142v-1016q3 -108 -31 -142q-33 -33 -135 -34v-41q158 4 326 5q169 1 268 1q106 0 234 -1q127 -1 235 -5q-7 80 -11 151q-3 71 -3 111q0 50 2 93q1 42 4 75h-47
q-16 -211 -83 -298q-67 -88 -253 -85h-150q-102 -3 -135 29q-34 33 -31 141v1016q-3 108 31 142q33 33 135 34v41zM1081 860q-55 -1 -92 -38q-38 -38 -39 -93q1 -55 39 -92q37 -37 92 -39q55 2 93 39q37 37 38 92q-1 55 -38 93q-38 37 -93 38v0z" />
    <glyph glyph-name="Lslash" unicode="&#x141;" horiz-adv-x="1204" 
d="M1135 262q0 50 2 93q1 42 4 75h-47q-16 -211 -83 -298q-67 -88 -253 -85h-150q-102 -3 -135 29q-34 33 -31 141v399l527 306v47l-527 -306v570q-3 108 31 142q33 33 135 34v41q-49 -3 -118 -4q-70 -2 -142 -2q-81 0 -149 2q-69 1 -113 4v-41q102 -1 135 -34
q34 -34 31 -142v-660l-166 -96v-47l166 96v-309q3 -108 -31 -142q-33 -33 -135 -34v-41q158 4 326 5q169 1 268 1q106 0 234 -1q127 -1 235 -5q-7 80 -11 151q-3 71 -3 111v0z" />
    <glyph glyph-name="M" unicode="M" horiz-adv-x="1784" 
d="M1698 1450q-49 -3 -119 -4q-69 -2 -141 -2h-97l-440 -1182l-450 1188q-35 -3 -82 -4q-47 -2 -93 -2q-53 0 -104 2q-51 1 -86 4v-41q102 -1 135 -34q34 -34 31 -142v-995q3 -110 -31 -152q-33 -43 -135 -45v-41q35 3 86 5q51 1 104 1q54 0 112 -1q58 -2 97 -5v41
q-116 2 -153 45q-36 42 -33 152v1081l516 -1329h33l493 1323v-1096q3 -108 -30 -142q-33 -33 -135 -34v-41q44 3 112 5q69 1 150 1q72 0 141 -1q70 -2 119 -5v41q-102 1 -135 34q-34 34 -31 142v1016q-3 108 31 142q33 33 135 34v41z" />
    <glyph glyph-name="N" unicode="N" horiz-adv-x="1446" 
d="M1372 1450q-35 -3 -86 -4q-51 -2 -104 -2q-54 0 -112 2q-58 1 -97 4v-41q117 -2 153 -44q36 -43 33 -153v-876l-723 1114q-34 -3 -74 -4q-41 -2 -86 -2q-53 0 -104 2q-51 1 -86 4v-41q102 -1 135 -34q34 -34 31 -142v-995q3 -110 -31 -152q-33 -43 -135 -45v-41
q35 3 86 5q51 1 104 1q54 0 112 -1q58 -2 97 -5v41q-116 2 -153 45q-36 42 -33 152v1081l860 -1329h47v1222q-3 110 31 153q33 42 135 44v41z" />
    <glyph glyph-name="Nacute" unicode="&#x143;" horiz-adv-x="1446" 
d="M985 1896q-60 -41 -134 -111q-73 -70 -210 -177l14 -27q156 77 252 111q96 35 160 71q28 19 41 40t13 41t-11 38q-11 16 -27 25t-36 9q-14 0 -30 -5q-15 -5 -32 -15v0zM1372 1450q-35 -3 -86 -4q-51 -2 -104 -2q-54 0 -112 2q-58 1 -97 4v-41q117 -2 153 -44
q36 -43 33 -153v-876l-723 1114q-34 -3 -74 -4q-41 -2 -86 -2q-53 0 -104 2q-51 1 -86 4v-41q102 -1 135 -34q34 -34 31 -142v-995q3 -110 -31 -152q-33 -43 -135 -45v-41q35 3 86 5q51 1 104 1q54 0 112 -1q58 -2 97 -5v41q-116 2 -153 45q-36 42 -33 152v1081l860 -1329
h47v1222q-3 110 31 153q33 42 135 44v41z" />
    <glyph glyph-name="Ncaron" unicode="&#x147;" horiz-adv-x="1446" 
d="M1151 1896q-101 -26 -195 -65t-155 -78q-73 39 -190 78q-116 39 -242 65l-10 -28q135 -48 234 -119q100 -72 149 -152h37q49 80 148 152q100 71 235 119zM1372 1450q-35 -3 -86 -4q-51 -2 -104 -2q-54 0 -112 2q-58 1 -97 4v-41q117 -2 153 -44q36 -43 33 -153v-876
l-723 1114q-34 -3 -74 -4q-41 -2 -86 -2q-53 0 -104 2q-51 1 -86 4v-41q102 -1 135 -34q34 -34 31 -142v-995q3 -110 -31 -152q-33 -43 -135 -45v-41q35 3 86 5q51 1 104 1q54 0 112 -1q58 -2 97 -5v41q-116 2 -153 45q-36 42 -33 152v1081l860 -1329h47v1222q-3 110 31 153
q33 42 135 44v41z" />
    <glyph glyph-name="Ncommaaccent" unicode="&#x145;" horiz-adv-x="1446" 
d="M1372 1450q-35 -3 -86 -4q-51 -2 -104 -2q-54 0 -112 2q-58 1 -97 4v-41q117 -2 153 -44q36 -43 33 -153v-876l-723 1114q-34 -3 -74 -4q-41 -2 -86 -2q-53 0 -104 2q-51 1 -86 4v-41q102 -1 135 -34q34 -34 31 -142v-995q3 -110 -31 -152q-33 -43 -135 -45v-41
q35 3 86 5q51 1 104 1q54 0 112 -1q58 -2 97 -5v41q-116 2 -153 45q-36 42 -33 152v1081l860 -1329h47v1222q-3 110 31 153q33 42 135 44v41zM740 -141q-49 -1 -81 -31q-33 -30 -34 -78q1 -54 31 -82t76 -28q26 0 48 9t38 23q-2 -49 -40 -82t-87 -47l14 -37q96 35 133 86
q37 50 35 123q-1 62 -36 102q-36 41 -97 42v0z" />
    <glyph glyph-name="Eng" unicode="&#x14a;" horiz-adv-x="1444" 
d="M1182 1444q-53 0 -102 2q-50 1 -87 4v-41q102 -1 136 -34q33 -34 30 -142v-856l-694 1073q-39 -3 -88 -4q-49 -2 -101 -2q-53 0 -104 2q-51 1 -86 4v-41q102 -1 135 -34q34 -34 31 -142v-1016q3 -108 -31 -142q-33 -33 -135 -34v-41q35 3 86 5q51 1 104 1t102 -1
q50 -2 87 -5v41q-102 1 -135 34q-34 34 -31 142v1102l856 -1323q-11 -163 -67 -254t-164 -92q-13 0 -25 1q-13 1 -22 3q23 14 38 40t15 54q-1 41 -30 68q-30 27 -73 28q-41 0 -68 -27t-28 -75q3 -68 56 -98q54 -30 128 -29q125 -8 206 109q82 117 85 462v1047q-3 108 31 142
q33 33 135 34v41q-35 -3 -86 -4q-51 -2 -104 -2v0z" />
    <glyph glyph-name="Ntilde" unicode="&#xd1;" horiz-adv-x="1446" 
d="M600 1847q-88 -1 -152 -58t-75 -159l31 -6q18 65 51 91q33 25 76 24q103 -10 195 -79q91 -69 202 -79q89 1 152 58q64 57 75 159l-30 6q-19 -65 -52 -90t-75 -24q-104 10 -195 79q-92 68 -203 78v0zM1372 1450q-35 -3 -86 -4q-51 -2 -104 -2q-54 0 -112 2q-58 1 -97 4
v-41q117 -2 153 -44q36 -43 33 -153v-876l-723 1114q-34 -3 -74 -4q-41 -2 -86 -2q-53 0 -104 2q-51 1 -86 4v-41q102 -1 135 -34q34 -34 31 -142v-995q3 -110 -31 -152q-33 -43 -135 -45v-41q35 3 86 5q51 1 104 1q54 0 112 -1q58 -2 97 -5v41q-116 2 -153 45
q-36 42 -33 152v1081l860 -1329h47v1222q-3 110 31 153q33 42 135 44v41z" />
    <glyph glyph-name="O" unicode="O" horiz-adv-x="1518" 
d="M760 1479q-291 -5 -468 -211q-178 -207 -183 -555q4 -354 179 -547q174 -193 470 -195q291 5 468 211q178 207 183 555q-4 354 -179 547q-174 193 -470 195v0zM752 1442q194 -4 321 -193q126 -189 131 -520q-2 -323 -119 -519q-117 -197 -319 -202q-194 4 -321 193
t-132 520q2 323 119 520q117 196 320 201v0z" />
    <glyph glyph-name="Oacute" unicode="&#xd3;" horiz-adv-x="1518" 
d="M975 1896q-60 -41 -134 -111q-73 -70 -210 -177l14 -27q156 77 252 111q96 35 160 71q28 19 41 40t13 41t-11 38q-11 16 -27 25t-36 9q-14 0 -30 -5q-15 -5 -32 -15v0zM760 1479q-291 -5 -468 -211q-178 -207 -183 -555q4 -354 179 -547q174 -193 470 -195q291 5 468 211
q178 207 183 555q-4 354 -179 547q-174 193 -470 195v0zM752 1442q194 -4 321 -193q126 -189 131 -520q-2 -323 -119 -519q-117 -197 -319 -202q-194 4 -321 193t-132 520q2 323 119 520q117 196 320 201v0z" />
    <glyph glyph-name="Obreve" unicode="&#x14e;" horiz-adv-x="1518" 
d="M1139 1862q-48 -49 -142 -90q-94 -40 -241 -43q-147 2 -241 42q-93 40 -140 89l-27 -21q49 -84 150 -158q102 -74 258 -79q157 5 258 79t149 158zM760 1479q-291 -5 -468 -211q-178 -207 -183 -555q4 -354 179 -547q174 -193 470 -195q291 5 468 211q178 207 183 555
q-4 354 -179 547q-174 193 -470 195v0zM752 1442q194 -4 321 -193q126 -189 131 -520q-2 -323 -119 -519q-117 -197 -319 -202q-194 4 -321 193t-132 520q2 323 119 520q117 196 320 201v0z" />
    <glyph glyph-name="Ocircumflex" unicode="&#xd4;" horiz-adv-x="1518" 
d="M738 1876q-49 -79 -149 -151q-99 -72 -234 -119l10 -29q101 27 195 66q94 38 155 77q73 -39 190 -77q116 -39 242 -66l11 29q-135 47 -235 119q-99 72 -148 151h-37zM760 1479q-291 -5 -468 -211q-178 -207 -183 -555q4 -354 179 -547q174 -193 470 -195q291 5 468 211
q178 207 183 555q-4 354 -179 547q-174 193 -470 195v0zM752 1442q194 -4 321 -193q126 -189 131 -520q-2 -323 -119 -519q-117 -197 -319 -202q-194 4 -321 193t-132 520q2 323 119 520q117 196 320 201v0z" />
    <glyph glyph-name="Odieresis" unicode="&#xd6;" horiz-adv-x="1518" 
d="M539 1819q-51 -2 -84 -36q-34 -34 -35 -83q1 -51 35 -84q33 -34 84 -35q49 1 83 35q34 33 36 84q-2 49 -36 83t-83 36v0zM973 1819q-50 -2 -84 -36t-35 -83q1 -51 35 -84q34 -34 84 -35q49 1 84 35q34 33 35 84q-1 49 -35 83q-35 34 -84 36v0zM760 1479
q-291 -5 -468 -211q-178 -207 -183 -555q4 -354 179 -547q174 -193 470 -195q291 5 468 211q178 207 183 555q-4 354 -179 547q-174 193 -470 195v0zM752 1442q194 -4 321 -193q126 -189 131 -520q-2 -323 -119 -519q-117 -197 -319 -202q-194 4 -321 193t-132 520
q2 323 119 520q117 196 320 201v0z" />
    <glyph glyph-name="Ograve" unicode="&#xd2;" horiz-adv-x="1518" 
d="M549 1896q-17 10 -32 15q-16 5 -30 5q-20 0 -36 -9t-27 -25q-11 -18 -11 -38t13 -41t41 -40q64 -36 160 -71q96 -34 252 -111l14 27q-137 107 -210 177q-74 70 -134 111v0zM760 1479q-291 -5 -468 -211q-178 -207 -183 -555q4 -354 179 -547q174 -193 470 -195
q291 5 468 211q178 207 183 555q-4 354 -179 547q-174 193 -470 195v0zM752 1442q194 -4 321 -193q126 -189 131 -520q-2 -323 -119 -519q-117 -197 -319 -202q-194 4 -321 193t-132 520q2 323 119 520q117 196 320 201v0z" />
    <glyph glyph-name="Ohungarumlaut" unicode="&#x150;" horiz-adv-x="1518" 
d="M692 1888q-57 -52 -112 -129t-127 -153l18 -25q88 58 174 99q86 40 148 87q22 20 33 39q10 20 10 39q0 14 -5 25q-5 12 -14 22q-10 12 -24 19q-15 7 -32 7q-16 0 -33 -7q-18 -7 -36 -23v0zM1075 1888q-57 -52 -112 -129t-127 -153l18 -25q88 58 174 99q86 40 148 87
q22 20 33 39q10 20 10 39q0 14 -5 25q-5 12 -14 22q-10 12 -24 19q-15 7 -32 7q-16 0 -33 -7q-18 -7 -36 -23v0zM760 1479q-291 -5 -468 -211q-178 -207 -183 -555q4 -354 179 -547q174 -193 470 -195q291 5 468 211q178 207 183 555q-4 354 -179 547q-174 193 -470 195v0z
M752 1442q194 -4 321 -193q126 -189 131 -520q-2 -323 -119 -519q-117 -197 -319 -202q-194 4 -321 193t-132 520q2 323 119 520q117 196 320 201v0z" />
    <glyph glyph-name="Omacron" unicode="&#x14c;" horiz-adv-x="1518" 
d="M1116 1677v52h-721v-52h721zM760 1479q-291 -5 -468 -211q-178 -207 -183 -555q4 -354 179 -547q174 -193 470 -195q291 5 468 211q178 207 183 555q-4 354 -179 547q-174 193 -470 195v0zM752 1442q194 -4 321 -193q126 -189 131 -520q-2 -323 -119 -519
q-117 -197 -319 -202q-194 4 -321 193t-132 520q2 323 119 520q117 196 320 201v0z" />
    <glyph glyph-name="Oslash" unicode="&#xd8;" horiz-adv-x="1518" 
d="M1356 1556l-39 27l-159 -231q-80 62 -180 95q-101 32 -218 32q-291 -5 -468 -211q-178 -207 -183 -555q1 -193 56 -340q55 -146 157 -242l-172 -252l43 -29l167 248q80 -62 181 -95q100 -32 217 -32q291 5 468 211q178 207 183 555q-1 194 -56 341q-56 147 -158 242z
M752 1442q95 0 177 -50q83 -50 144 -144l-657 -999q-48 90 -75 209q-28 119 -28 263q2 323 119 520q117 196 320 201v0zM766 8q-95 0 -177 50q-82 49 -143 142l655 1001q49 -90 76 -209t27 -263q-2 -323 -119 -519q-117 -197 -319 -202v0z" />
    <glyph glyph-name="Otilde" unicode="&#xd5;" horiz-adv-x="1518" 
d="M590 1847q-88 -1 -152 -58t-75 -159l31 -6q18 65 51 91q33 25 76 24q103 -10 195 -79q91 -69 202 -79q89 1 152 58q64 57 75 159l-30 6q-19 -65 -52 -90t-75 -24q-104 10 -195 79q-92 68 -203 78v0zM760 1479q-291 -5 -468 -211q-178 -207 -183 -555q4 -354 179 -547
q174 -193 470 -195q291 5 468 211q178 207 183 555q-4 354 -179 547q-174 193 -470 195v0zM752 1442q194 -4 321 -193q126 -189 131 -520q-2 -323 -119 -519q-117 -197 -319 -202q-194 4 -321 193t-132 520q2 323 119 520q117 196 320 201v0z" />
    <glyph glyph-name="OE" unicode="&#x152;" horiz-adv-x="1901" 
d="M1788 262q0 43 2 82q1 38 4 66h-47q-16 -201 -83 -283q-67 -83 -253 -80h-47q-102 -3 -135 29q-34 33 -31 141v492h88q128 -4 159 -73q31 -70 38 -157h47q-7 99 -10 154q-2 54 -2 96v43q-1 22 -1 48q0 29 1 68q2 38 6 91h-47q-6 -68 -35 -145t-156 -84h-88v483
q-3 108 31 141q33 32 135 29h68q157 3 208 -70q52 -73 66 -252h47q-3 24 -4 57q-2 33 -2 70t3 103q4 65 11 139q-88 -4 -194 -5q-105 -1 -193 -1q-72 0 -190 1q-118 0 -244 3q-82 31 -180 31q-291 -5 -468 -211q-178 -207 -183 -555q4 -354 179 -547q174 -193 470 -195
q44 0 86 8t82 23q125 3 249 4h199q97 0 213 -1q117 -1 215 -5q-7 80 -11 151q-3 71 -3 111v0zM1008 217q-5 -111 -81 -160q-76 -50 -161 -49q-194 4 -321 193t-132 520q2 323 119 520q117 196 320 201q107 1 180 -49q73 -49 76 -160v-1016z" />
    <glyph glyph-name="P" unicode="P" horiz-adv-x="1198" 
d="M442 586h158q312 10 429 155q116 144 110 303q0 181 -123 291q-124 110 -371 113q-39 0 -124 -2q-86 -2 -185 -2q-69 0 -137 2q-68 1 -113 4v-41q102 -1 135 -34q34 -34 31 -142v-1016q3 -108 -31 -142q-33 -33 -135 -34v-41q44 3 113 5q68 1 149 1q85 0 166 -1
q80 -2 135 -5v41q-126 1 -168 34q-42 34 -39 142v369zM594 1409q184 0 263 -97q79 -96 77 -290q5 -162 -68 -276q-74 -114 -286 -119h-138v606q-2 104 29 141t123 35v0z" />
    <glyph glyph-name="Thorn" unicode="&#xde;" horiz-adv-x="1188" 
d="M442 283h144q312 10 428 154t110 308q0 173 -123 285q-123 111 -370 115q-26 0 -76 -1t-113 -2v91q-3 108 31 142q33 33 135 34v41q-49 -3 -118 -4q-70 -2 -142 -2q-81 0 -149 2q-69 1 -113 4v-41q102 -1 135 -34q34 -34 31 -142v-1016q3 -108 -31 -142q-33 -33 -135 -34
v-41q44 3 113 5q68 1 149 1q72 0 142 -1q69 -2 118 -5v41q-102 1 -135 34q-34 34 -31 142v66zM580 1106q183 0 263 -95q79 -95 77 -278q5 -169 -68 -287q-74 -117 -287 -122h-123v780q35 1 71 1q35 1 67 1v0z" />
    <glyph glyph-name="Q" unicode="Q" horiz-adv-x="1518" 
d="M1532 -47q-45 -92 -131 -135t-232 -43q-126 2 -307 34q-182 31 -342 64q87 28 151 58t152 42v1q264 29 423 232t163 531q-4 354 -179 547q-174 193 -470 195q-291 -5 -468 -211q-178 -207 -183 -555q3 -330 156 -520q153 -191 415 -218q-55 -22 -108 -47t-123 -45
q-40 8 -80 13q-40 4 -74 4q-57 0 -84 -12q-27 -11 -27 -31q1 -22 27 -31q25 -10 68 -10q40 0 85 8q44 8 85 22q9 -3 22 -6q13 -4 27 -8q193 -71 346 -141q154 -71 313 -76q104 1 171 28q68 27 106 64q40 36 72 93t57 141zM313 721q2 323 119 520q117 196 320 201
q194 -4 321 -193q126 -189 131 -520q-2 -323 -119 -519q-117 -197 -319 -202q-194 4 -321 193t-132 520v0z" />
    <glyph glyph-name="R" unicode="R" horiz-adv-x="1327" 
d="M1321 125q-27 -36 -51 -57q-25 -21 -61 -21q-42 -1 -64 39q-23 40 -41 129l-51 209q-26 126 -90 188q-63 61 -197 82l-25 4q228 43 315 162t83 232q0 154 -123 253q-124 100 -371 103q-39 0 -124 -2q-86 -2 -185 -2q-69 0 -137 2q-68 1 -113 4v-41q102 -1 135 -34
q34 -34 31 -142v-1016q3 -108 -31 -142q-33 -33 -135 -34v-41q44 3 113 5q68 1 149 1q72 0 142 -1q69 -2 118 -5v41q-102 1 -135 34q-34 34 -31 142v471h195q117 -2 162 -80q44 -79 69 -211l45 -204q30 -129 86 -177t134 -45q80 0 129 34t90 97zM594 1409q184 -1 263 -89
q79 -89 77 -251q5 -145 -68 -240q-74 -96 -286 -100h-138v504q-2 104 29 141t123 35v0z" />
    <glyph glyph-name="Racute" unicode="&#x154;" horiz-adv-x="1327" 
d="M907 1763q28 19 41 40t13 41t-11 38q-11 16 -27 25t-36 9q-14 0 -30 -5q-15 -5 -32 -15q-60 -41 -134 -111q-73 -70 -210 -177l14 -27q156 77 252 111q96 35 160 71v0zM1321 125q-27 -36 -51 -57q-25 -21 -61 -21q-42 -1 -64 39q-23 40 -41 129l-51 209q-26 126 -90 188
q-63 61 -197 82l-25 4q228 43 315 162t83 232q0 154 -123 253q-124 100 -371 103q-39 0 -124 -2q-86 -2 -185 -2q-69 0 -137 2q-68 1 -113 4v-41q102 -1 135 -34q34 -34 31 -142v-1016q3 -108 -31 -142q-33 -33 -135 -34v-41q44 3 113 5q68 1 149 1q72 0 142 -1
q69 -2 118 -5v41q-102 1 -135 34q-34 34 -31 142v471h195q117 -2 162 -80q44 -79 69 -211l45 -204q30 -129 86 -177t134 -45q80 0 129 34t90 97zM594 1409q184 -1 263 -89q79 -89 77 -251q5 -145 -68 -240q-74 -96 -286 -100h-138v504q-2 104 29 141t123 35v0z" />
    <glyph glyph-name="Rcaron" unicode="&#x158;" horiz-adv-x="1327" 
d="M619 1597q49 80 148 152q100 71 235 119l-11 28q-101 -26 -195 -65t-155 -78q-73 39 -190 78q-116 39 -242 65l-10 -28q135 -48 234 -119q100 -72 149 -152h37zM1321 125q-27 -36 -51 -57q-25 -21 -61 -21q-42 -1 -64 39q-23 40 -41 129l-51 209q-26 126 -90 188
q-63 61 -197 82l-25 4q228 43 315 162t83 232q0 154 -123 253q-124 100 -371 103q-39 0 -124 -2q-86 -2 -185 -2q-69 0 -137 2q-68 1 -113 4v-41q102 -1 135 -34q34 -34 31 -142v-1016q3 -108 -31 -142q-33 -33 -135 -34v-41q44 3 113 5q68 1 149 1q72 0 142 -1
q69 -2 118 -5v41q-102 1 -135 34q-34 34 -31 142v471h195q117 -2 162 -80q44 -79 69 -211l45 -204q30 -129 86 -177t134 -45q80 0 129 34t90 97zM594 1409q184 -1 263 -89q79 -89 77 -251q5 -145 -68 -240q-74 -96 -286 -100h-138v504q-2 104 29 141t123 35v0z" />
    <glyph glyph-name="Rcommaaccent" unicode="&#x156;" horiz-adv-x="1327" 
d="M1321 125q-27 -36 -51 -57q-25 -21 -61 -21q-42 -1 -64 39q-23 40 -41 129l-51 209q-26 126 -90 188q-63 61 -197 82l-25 4q228 43 315 162t83 232q0 154 -123 253q-124 100 -371 103q-39 0 -124 -2q-86 -2 -185 -2q-69 0 -137 2q-68 1 -113 4v-41q102 -1 135 -34
q34 -34 31 -142v-1016q3 -108 -31 -142q-33 -33 -135 -34v-41q44 3 113 5q68 1 149 1q72 0 142 -1q69 -2 118 -5v41q-102 1 -135 34q-34 34 -31 142v471h195q117 -2 162 -80q44 -79 69 -211l45 -204q30 -129 86 -177t134 -45q80 0 129 34t90 97zM594 1409q184 -1 263 -89
q79 -89 77 -251q5 -145 -68 -240q-74 -96 -286 -100h-138v504q-2 104 29 141t123 35v0zM678 -141q-49 -1 -81 -31q-33 -30 -34 -78q1 -54 31 -82t76 -28q26 0 48 9t38 23q-2 -49 -40 -82t-87 -47l14 -37q96 35 133 86q37 50 35 123q-1 62 -36 102q-36 41 -97 42v0z" />
    <glyph glyph-name="S" unicode="S" horiz-adv-x="1106" 
d="M524 1473q-157 1 -268 -87q-112 -87 -117 -268q5 -169 109 -272q105 -103 256 -187q145 -83 231 -167q86 -85 88 -207q-4 -144 -83 -209t-183 -64q-194 6 -278 140q-85 133 -95 325h-47q0 -212 -2 -322t-6 -169h47q6 44 16 67t29 23q12 0 29 -7q17 -6 41 -22
q43 -29 108 -52t172 -24q183 0 307 97q123 97 128 292q-3 161 -105 263q-101 103 -264 198q-142 81 -241 161q-99 79 -103 214q2 107 70 172q69 64 180 66q169 -6 248 -124q78 -117 88 -270h47q0 189 3 279q2 90 7 139h-47q-6 -44 -16 -67t-29 -23q-14 0 -30 7q-16 6 -40 22
q-39 29 -95 52t-155 24v0z" />
    <glyph glyph-name="Sacute" unicode="&#x15a;" horiz-adv-x="1106" 
d="M782 1896q-60 -41 -134 -111q-73 -70 -210 -177l14 -27q156 77 252 111q96 35 160 71q28 19 41 40t13 41t-11 38q-11 16 -27 25t-36 9q-14 0 -30 -5q-15 -5 -32 -15v0zM524 1473q-157 1 -268 -87q-112 -87 -117 -268q5 -169 109 -272q105 -103 256 -187q145 -83 231 -167
q86 -85 88 -207q-4 -144 -83 -209t-183 -64q-194 6 -278 140q-85 133 -95 325h-47q0 -212 -2 -322t-6 -169h47q6 44 16 67t29 23q12 0 29 -7q17 -6 41 -22q43 -29 108 -52t172 -24q183 0 307 97q123 97 128 292q-3 161 -105 263q-101 103 -264 198q-142 81 -241 161
q-99 79 -103 214q2 107 70 172q69 64 180 66q169 -6 248 -124q78 -117 88 -270h47q0 189 3 279q2 90 7 139h-47q-6 -44 -16 -67t-29 -23q-14 0 -30 7q-16 6 -40 22q-39 29 -95 52t-155 24v0z" />
    <glyph glyph-name="Scaron" unicode="&#x160;" horiz-adv-x="1106" 
d="M948 1896q-101 -26 -195 -65t-155 -78q-73 39 -190 78q-116 39 -242 65l-10 -28q135 -48 234 -119q100 -72 149 -152h37q49 80 148 152q100 71 235 119zM524 1473q-157 1 -268 -87q-112 -87 -117 -268q5 -169 109 -272q105 -103 256 -187q145 -83 231 -167
q86 -85 88 -207q-4 -144 -83 -209t-183 -64q-194 6 -278 140q-85 133 -95 325h-47q0 -212 -2 -322t-6 -169h47q6 44 16 67t29 23q12 0 29 -7q17 -6 41 -22q43 -29 108 -52t172 -24q183 0 307 97q123 97 128 292q-3 161 -105 263q-101 103 -264 198q-142 81 -241 161
q-99 79 -103 214q2 107 70 172q69 64 180 66q169 -6 248 -124q78 -117 88 -270h47q0 189 3 279q2 90 7 139h-47q-6 -44 -16 -67t-29 -23q-14 0 -30 7q-16 6 -40 22q-39 29 -95 52t-155 24v0z" />
    <glyph glyph-name="Scedilla" unicode="&#x15e;" horiz-adv-x="1106" 
d="M1006 360q-3 161 -105 263q-101 103 -264 198q-142 81 -241 161q-99 79 -103 214q2 107 70 172q69 64 180 66q169 -6 248 -124q78 -117 88 -270h47q0 189 3 279q2 90 7 139h-47q-6 -44 -16 -67t-29 -23q-14 0 -30 7q-16 6 -40 22q-39 29 -95 52t-155 24q-157 1 -268 -87
q-112 -87 -117 -268q5 -169 109 -272q105 -103 256 -187q145 -83 231 -167q86 -85 88 -207q-4 -144 -83 -209t-183 -64q-194 6 -278 140q-85 133 -95 325h-47q0 -212 -2 -322t-6 -169h47q6 44 16 67t29 23q12 0 29 -7q17 -6 41 -22q40 -27 98 -48q59 -22 151 -27l-56 -169
q25 8 53 12q29 3 47 3q41 0 64 -14q22 -15 22 -44q-4 -54 -62 -73q-58 -20 -122 -19q-25 0 -46 2t-32 4l-8 -36q28 -10 70 -16q43 -7 100 -7q79 -1 152 35q74 36 79 121q-1 46 -34 71t-91 25q-34 0 -64 -4q-31 -4 -57 -10l41 118q175 7 290 104q116 97 120 285v0z" />
    <glyph glyph-name="Scircumflex" unicode="&#x15c;" horiz-adv-x="1106" 
d="M545 1876q-49 -79 -149 -151q-99 -72 -234 -119l10 -29q101 27 195 66q94 38 155 77q73 -39 190 -77q116 -39 242 -66l11 29q-135 47 -235 119q-99 72 -148 151h-37zM524 1473q-157 1 -268 -87q-112 -87 -117 -268q5 -169 109 -272q105 -103 256 -187q145 -83 231 -167
q86 -85 88 -207q-4 -144 -83 -209t-183 -64q-194 6 -278 140q-85 133 -95 325h-47q0 -212 -2 -322t-6 -169h47q6 44 16 67t29 23q12 0 29 -7q17 -6 41 -22q43 -29 108 -52t172 -24q183 0 307 97q123 97 128 292q-3 161 -105 263q-101 103 -264 198q-142 81 -241 161
q-99 79 -103 214q2 107 70 172q69 64 180 66q169 -6 248 -124q78 -117 88 -270h47q0 189 3 279q2 90 7 139h-47q-6 -44 -16 -67t-29 -23q-14 0 -30 7q-16 6 -40 22q-39 29 -95 52t-155 24v0z" />
    <glyph glyph-name="Scommaaccent" unicode="&#x218;" horiz-adv-x="1106" 
d="M524 1473q-157 1 -268 -87q-112 -87 -117 -268q5 -169 109 -272q105 -103 256 -187q145 -83 231 -167q86 -85 88 -207q-4 -144 -83 -209t-183 -64q-194 6 -278 140q-85 133 -95 325h-47q0 -212 -2 -322t-6 -169h47q6 44 16 67t29 23q12 0 29 -7q17 -6 41 -22
q43 -29 108 -52t172 -24q183 0 307 97q123 97 128 292q-3 161 -105 263q-101 103 -264 198q-142 81 -241 161q-99 79 -103 214q2 107 70 172q69 64 180 66q169 -6 248 -124q78 -117 88 -270h47q0 189 3 279q2 90 7 139h-47q-6 -44 -16 -67t-29 -23q-14 0 -30 7q-16 6 -40 22
q-39 29 -95 52t-155 24v0zM574 -141q-49 -1 -81 -31q-33 -30 -34 -78q1 -54 31 -82t76 -28q26 0 48 9t38 23q-2 -49 -40 -82t-87 -47l14 -37q96 35 133 86q37 50 35 123q-1 62 -36 102q-36 41 -97 42v0z" />
    <glyph glyph-name="uni1E9E" unicode="&#x1e9e;" horiz-adv-x="1395" 
d="M754 1479q-266 2 -410 -167q-143 -168 -145 -528v-567q3 -108 -31 -142q-33 -33 -135 -34v-41q45 3 112 5q67 1 123 1q91 0 141 -3q49 -3 93 -3v41q-69 -1 -92 37t-21 139v692q5 309 118 424t269 109q63 0 128 -15q64 -14 106 -45l-322 -524q190 -28 305 -143
q114 -116 117 -312q0 -156 -77 -271q-78 -116 -236 -122q-32 0 -78 6q-46 7 -72 27q39 8 62 34t24 70q-1 53 -32 82q-32 29 -80 29q-49 -1 -78 -30q-30 -30 -31 -78q0 -41 23 -78q24 -37 77 -64q29 -14 76 -25t119 -12q238 5 372 126q134 122 136 300q-4 175 -128 291
q-123 115 -315 156l310 489q-90 71 -195 108q-105 38 -233 38v0z" />
    <glyph glyph-name="T" unicode="T" horiz-adv-x="1272" 
d="M1212 1450q-132 -4 -288 -5q-157 -1 -287 -1t-288 1t-290 5q8 -80 12 -151q3 -71 3 -111q0 -50 -1 -93q-2 -42 -5 -75h47q14 211 72 298q58 88 243 85h111v-1165q3 -121 -39 -158q-42 -38 -168 -39v-41q50 3 130 5q79 1 173 1q85 0 165 -1q80 -2 136 -5v41
q-126 1 -168 39q-42 37 -39 158v1165h111q185 3 243 -85q57 -87 72 -298h47q-3 33 -4 75q-2 43 -2 93q0 40 3 111q4 71 11 151v0z" />
    <glyph glyph-name="Tbar" unicode="&#x166;" horiz-adv-x="1284" 
d="M1216 1450q-132 -4 -288 -5q-157 -1 -287 -1t-288 1t-290 5q8 -80 12 -151q3 -71 3 -111q0 -50 -1 -93q-2 -42 -5 -75h47q14 211 72 298q58 88 243 85h111v-653h-330v-41h330v-471q3 -121 -39 -158q-42 -38 -168 -39v-41q50 3 130 5q79 1 173 1q85 0 165 -1q80 -2 136 -5
v41q-126 1 -168 39q-42 37 -39 158v471h328v41h-328v653h111q185 3 243 -85q57 -87 72 -298h47q-3 33 -4 75q-2 43 -2 93q0 40 3 111q4 71 11 151v0z" />
    <glyph glyph-name="Tcaron" unicode="&#x164;" horiz-adv-x="1272" 
d="M1022 1896q-101 -26 -195 -65t-155 -78q-73 39 -190 78q-116 39 -242 65l-10 -28q135 -48 234 -119q100 -72 149 -152h37q49 80 148 152q100 71 235 119zM1212 1450q-132 -4 -288 -5q-157 -1 -287 -1t-288 1t-290 5q8 -80 12 -151q3 -71 3 -111q0 -50 -1 -93
q-2 -42 -5 -75h47q14 211 72 298q58 88 243 85h111v-1165q3 -121 -39 -158q-42 -38 -168 -39v-41q50 3 130 5q79 1 173 1q85 0 165 -1q80 -2 136 -5v41q-126 1 -168 39q-42 37 -39 158v1165h111q185 3 243 -85q57 -87 72 -298h47q-3 33 -4 75q-2 43 -2 93q0 40 3 111
q4 71 11 151v0z" />
    <glyph glyph-name="Tcedilla" unicode="&#x162;" horiz-adv-x="1272" 
d="M1212 1450q-132 -4 -288 -5q-157 -1 -287 -1t-288 1t-290 5q8 -80 12 -151q3 -71 3 -111q0 -50 -1 -93q-2 -42 -5 -75h47q14 211 72 298q58 88 243 85h111v-1165q3 -121 -39 -158q-42 -38 -168 -39v-41q45 3 115 5q71 1 154 1l-68 -203q25 8 53 12q29 3 47 3q41 0 64 -14
q22 -15 22 -44q-4 -54 -62 -73q-58 -20 -122 -19q-25 0 -46 2t-32 4l-8 -36q28 -10 70 -16q43 -7 100 -7q79 -1 152 35q74 36 79 121q-1 46 -34 71t-91 25q-34 0 -64 -4q-31 -4 -57 -10l53 153q79 0 153 -1q74 -2 126 -5v41q-126 1 -168 39q-42 37 -39 158v1165h111
q185 3 243 -85q57 -87 72 -298h47q-3 33 -4 75q-2 43 -2 93q0 40 3 111q4 71 11 151v0z" />
    <glyph glyph-name="uni021A" unicode="&#x21a;" horiz-adv-x="1272" 
d="M1212 1450q-132 -4 -288 -5q-157 -1 -287 -1t-288 1t-290 5q8 -80 12 -151q3 -71 3 -111q0 -50 -1 -93q-2 -42 -5 -75h47q14 211 72 298q58 88 243 85h111v-1165q3 -121 -39 -158q-42 -38 -168 -39v-41q50 3 130 5q79 1 173 1q85 0 165 -1q80 -2 136 -5v41
q-126 1 -168 39q-42 37 -39 158v1165h111q185 3 243 -85q57 -87 72 -298h47q-3 33 -4 75q-2 43 -2 93q0 40 3 111q4 71 11 151v0zM625 -141q-49 -1 -81 -31q-33 -30 -34 -78q1 -54 31 -82t76 -28q26 0 48 9t38 23q-2 -49 -40 -82t-87 -47l14 -37q96 35 133 86q37 50 35 123
q-1 62 -36 102q-36 41 -97 42v0z" />
    <glyph glyph-name="U" unicode="U" horiz-adv-x="1397" 
d="M1341 1450q-35 -3 -86 -4q-50 -2 -104 -2t-112 2q-58 1 -97 4v-41q103 -2 145 -44q42 -43 41 -153v-639q4 -233 -81 -379t-312 -151q-211 6 -271 151q-59 145 -52 361v678q-3 108 31 142q33 33 135 34v41q-49 -3 -119 -4q-69 -2 -142 -2q-80 0 -149 2q-68 1 -113 4v-41
q102 -1 136 -34q33 -34 30 -142v-643q-2 -204 31 -316q32 -112 121 -192q68 -62 157 -87q88 -25 187 -24q127 1 225 52q98 52 150 139q45 78 65 185q19 107 19 249v616q-3 110 30 153q33 42 135 44v41z" />
    <glyph glyph-name="Uacute" unicode="&#xda;" horiz-adv-x="1397" 
d="M940 1896q-60 -41 -134 -111q-73 -70 -210 -177l14 -27q156 77 252 111q96 35 160 71q28 19 41 40t13 41t-11 38q-11 16 -27 25t-36 9q-14 0 -30 -5q-15 -5 -32 -15v0zM1341 1450q-35 -3 -86 -4q-50 -2 -104 -2t-112 2q-58 1 -97 4v-41q103 -2 145 -44q42 -43 41 -153
v-639q4 -233 -81 -379t-312 -151q-211 6 -271 151q-59 145 -52 361v678q-3 108 31 142q33 33 135 34v41q-49 -3 -119 -4q-69 -2 -142 -2q-80 0 -149 2q-68 1 -113 4v-41q102 -1 136 -34q33 -34 30 -142v-643q-2 -204 31 -316q32 -112 121 -192q68 -62 157 -87
q88 -25 187 -24q127 1 225 52q98 52 150 139q45 78 65 185q19 107 19 249v616q-3 110 30 153q33 42 135 44v41z" />
    <glyph glyph-name="Ubreve" unicode="&#x16c;" horiz-adv-x="1397" 
d="M1104 1862q-48 -49 -142 -90q-94 -40 -241 -43q-147 2 -241 42q-93 40 -140 89l-27 -21q49 -84 150 -158q102 -74 258 -79q157 5 258 79t149 158zM1341 1450q-35 -3 -86 -4q-50 -2 -104 -2t-112 2q-58 1 -97 4v-41q103 -2 145 -44q42 -43 41 -153v-639q4 -233 -81 -379
t-312 -151q-211 6 -271 151q-59 145 -52 361v678q-3 108 31 142q33 33 135 34v41q-49 -3 -119 -4q-69 -2 -142 -2q-80 0 -149 2q-68 1 -113 4v-41q102 -1 136 -34q33 -34 30 -142v-643q-2 -204 31 -316q32 -112 121 -192q68 -62 157 -87q88 -25 187 -24q127 1 225 52
q98 52 150 139q45 78 65 185q19 107 19 249v616q-3 110 30 153q33 42 135 44v41z" />
    <glyph glyph-name="Ucircumflex" unicode="&#xdb;" horiz-adv-x="1397" 
d="M703 1876q-49 -79 -149 -151q-99 -72 -234 -119l10 -29q101 27 195 66q94 38 155 77q73 -39 190 -77q116 -39 242 -66l11 29q-135 47 -235 119q-99 72 -148 151h-37zM1341 1450q-35 -3 -86 -4q-50 -2 -104 -2t-112 2q-58 1 -97 4v-41q103 -2 145 -44q42 -43 41 -153v-639
q4 -233 -81 -379t-312 -151q-211 6 -271 151q-59 145 -52 361v678q-3 108 31 142q33 33 135 34v41q-49 -3 -119 -4q-69 -2 -142 -2q-80 0 -149 2q-68 1 -113 4v-41q102 -1 136 -34q33 -34 30 -142v-643q-2 -204 31 -316q32 -112 121 -192q68 -62 157 -87q88 -25 187 -24
q127 1 225 52q98 52 150 139q45 78 65 185q19 107 19 249v616q-3 110 30 153q33 42 135 44v41z" />
    <glyph glyph-name="Udieresis" unicode="&#xdc;" horiz-adv-x="1397" 
d="M504 1819q-51 -2 -84 -36q-34 -34 -35 -83q1 -51 35 -84q33 -34 84 -35q49 1 83 35q34 33 36 84q-2 49 -36 83t-83 36v0zM938 1819q-50 -2 -84 -36t-35 -83q1 -51 35 -84q34 -34 84 -35q49 1 84 35q34 33 35 84q-1 49 -35 83q-35 34 -84 36v0zM1341 1450q-35 -3 -86 -4
q-50 -2 -104 -2t-112 2q-58 1 -97 4v-41q103 -2 145 -44q42 -43 41 -153v-639q4 -233 -81 -379t-312 -151q-211 6 -271 151q-59 145 -52 361v678q-3 108 31 142q33 33 135 34v41q-49 -3 -119 -4q-69 -2 -142 -2q-80 0 -149 2q-68 1 -113 4v-41q102 -1 136 -34
q33 -34 30 -142v-643q-2 -204 31 -316q32 -112 121 -192q68 -62 157 -87q88 -25 187 -24q127 1 225 52q98 52 150 139q45 78 65 185q19 107 19 249v616q-3 110 30 153q33 42 135 44v41z" />
    <glyph glyph-name="Ugrave" unicode="&#xd9;" horiz-adv-x="1397" 
d="M514 1896q-17 10 -32 15q-16 5 -30 5q-20 0 -36 -9t-27 -25q-11 -18 -11 -38t13 -41t41 -40q64 -36 160 -71q96 -34 252 -111l14 27q-137 107 -210 177q-74 70 -134 111v0zM1341 1450q-35 -3 -86 -4q-50 -2 -104 -2t-112 2q-58 1 -97 4v-41q103 -2 145 -44
q42 -43 41 -153v-639q4 -233 -81 -379t-312 -151q-211 6 -271 151q-59 145 -52 361v678q-3 108 31 142q33 33 135 34v41q-49 -3 -119 -4q-69 -2 -142 -2q-80 0 -149 2q-68 1 -113 4v-41q102 -1 136 -34q33 -34 30 -142v-643q-2 -204 31 -316q32 -112 121 -192
q68 -62 157 -87q88 -25 187 -24q127 1 225 52q98 52 150 139q45 78 65 185q19 107 19 249v616q-3 110 30 153q33 42 135 44v41z" />
    <glyph glyph-name="Uhungarumlaut" unicode="&#x170;" horiz-adv-x="1397" 
d="M657 1888q-57 -52 -112 -129t-127 -153l18 -25q88 58 174 99q86 40 148 87q22 20 33 39q10 20 10 39q0 14 -5 25q-5 12 -14 22q-10 12 -24 19q-15 7 -32 7q-16 0 -33 -7q-18 -7 -36 -23v0zM1040 1888q-57 -52 -112 -129t-127 -153l18 -25q88 58 174 99q86 40 148 87
q22 20 33 39q10 20 10 39q0 14 -5 25q-5 12 -14 22q-10 12 -24 19q-15 7 -32 7q-16 0 -33 -7q-18 -7 -36 -23v0zM1341 1450q-35 -3 -86 -4q-50 -2 -104 -2t-112 2q-58 1 -97 4v-41q103 -2 145 -44q42 -43 41 -153v-639q4 -233 -81 -379t-312 -151q-211 6 -271 151
q-59 145 -52 361v678q-3 108 31 142q33 33 135 34v41q-49 -3 -119 -4q-69 -2 -142 -2q-80 0 -149 2q-68 1 -113 4v-41q102 -1 136 -34q33 -34 30 -142v-643q-2 -204 31 -316q32 -112 121 -192q68 -62 157 -87q88 -25 187 -24q127 1 225 52q98 52 150 139q45 78 65 185
q19 107 19 249v616q-3 110 30 153q33 42 135 44v41z" />
    <glyph glyph-name="Umacron" unicode="&#x16a;" horiz-adv-x="1397" 
d="M1081 1677v52h-721v-52h721zM1341 1450q-35 -3 -86 -4q-50 -2 -104 -2t-112 2q-58 1 -97 4v-41q103 -2 145 -44q42 -43 41 -153v-639q4 -233 -81 -379t-312 -151q-211 6 -271 151q-59 145 -52 361v678q-3 108 31 142q33 33 135 34v41q-49 -3 -119 -4q-69 -2 -142 -2
q-80 0 -149 2q-68 1 -113 4v-41q102 -1 136 -34q33 -34 30 -142v-643q-2 -204 31 -316q32 -112 121 -192q68 -62 157 -87q88 -25 187 -24q127 1 225 52q98 52 150 139q45 78 65 185q19 107 19 249v616q-3 110 30 153q33 42 135 44v41z" />
    <glyph glyph-name="Uogonek" unicode="&#x172;" horiz-adv-x="1397" 
d="M1151 1444q-54 0 -112 2q-58 1 -97 4v-41q103 -2 145 -44q42 -43 41 -153v-639q4 -233 -81 -379t-312 -151q-211 6 -271 151q-59 145 -52 361v678q-3 108 31 142q33 33 135 34v41q-49 -3 -119 -4q-69 -2 -142 -2q-80 0 -149 2q-68 1 -113 4v-41q102 -1 136 -34
q33 -34 30 -142v-643q-2 -204 31 -316q32 -112 121 -192q68 -62 157 -87q88 -25 187 -24h17q-94 -43 -144 -100t-50 -123q1 -61 44 -96q44 -36 118 -37q68 0 126 34q58 33 105 105l-30 27q-21 -29 -53 -48q-33 -19 -72 -20q-42 1 -65 25q-23 25 -23 65q-1 46 32 96
q34 49 117 86q85 21 149 66q65 46 104 111q45 78 65 185q19 107 19 249v616q-3 110 30 153q33 42 135 44v41q-35 -3 -86 -4q-50 -2 -104 -2v0z" />
    <glyph glyph-name="Uring" unicode="&#x16e;" horiz-adv-x="1397" 
d="M721 2017q-80 -1 -137 -50q-56 -50 -59 -136q3 -89 59 -138q57 -50 137 -51q83 1 140 51q57 49 59 138q-2 86 -59 136q-57 49 -140 50v0zM721 1974q54 0 97 -37t45 -108q-2 -73 -45 -108q-43 -36 -97 -36q-51 0 -94 36q-42 35 -45 108q3 71 45 108q43 37 94 37v0z
M1341 1450q-35 -3 -86 -4q-50 -2 -104 -2t-112 2q-58 1 -97 4v-41q103 -2 145 -44q42 -43 41 -153v-639q4 -233 -81 -379t-312 -151q-211 6 -271 151q-59 145 -52 361v678q-3 108 31 142q33 33 135 34v41q-49 -3 -119 -4q-69 -2 -142 -2q-80 0 -149 2q-68 1 -113 4v-41
q102 -1 136 -34q33 -34 30 -142v-643q-2 -204 31 -316q32 -112 121 -192q68 -62 157 -87q88 -25 187 -24q127 1 225 52q98 52 150 139q45 78 65 185q19 107 19 249v616q-3 110 30 153q33 42 135 44v41z" />
    <glyph glyph-name="Utilde" unicode="&#x168;" horiz-adv-x="1397" 
d="M555 1847q-88 -1 -152 -58t-75 -159l31 -6q18 65 51 91q33 25 76 24q103 -10 195 -79q91 -69 202 -79q89 1 152 58q64 57 75 159l-30 6q-19 -65 -52 -90t-75 -24q-104 10 -195 79q-92 68 -203 78v0zM1341 1450q-35 -3 -86 -4q-50 -2 -104 -2t-112 2q-58 1 -97 4v-41
q103 -2 145 -44q42 -43 41 -153v-639q4 -233 -81 -379t-312 -151q-211 6 -271 151q-59 145 -52 361v678q-3 108 31 142q33 33 135 34v41q-49 -3 -119 -4q-69 -2 -142 -2q-80 0 -149 2q-68 1 -113 4v-41q102 -1 136 -34q33 -34 30 -142v-643q-2 -204 31 -316
q32 -112 121 -192q68 -62 157 -87q88 -25 187 -24q127 1 225 52q98 52 150 139q45 78 65 185q19 107 19 249v616q-3 110 30 153q33 42 135 44v41z" />
    <glyph glyph-name="V" unicode="V" horiz-adv-x="1290" 
d="M1151 1444q-55 0 -116 2q-61 1 -120 4v-41q88 -1 133 -29q46 -28 46 -95q0 -31 -10 -73q-11 -42 -31 -94l-334 -865l-371 984q-12 31 -18 54q-6 24 -6 42q0 42 36 58t109 18v41q-44 -3 -113 -4q-68 -2 -149 -2q-60 0 -118 2q-59 1 -101 4v-41q33 0 71 -27q38 -28 70 -104
l500 -1288h8h8h17l481 1241q36 91 78 131q43 40 84 47v41q-30 -3 -66 -4q-36 -2 -88 -2v0z" />
    <glyph glyph-name="W" unicode="W" horiz-adv-x="1853" 
d="M1704 1444q-55 0 -116 2q-61 1 -120 4v-41q89 -1 132 -29t43 -97q0 -31 -8 -72t-25 -93l-253 -792l-294 911q-10 32 -16 57q-5 24 -5 42q0 46 36 59t104 14v41q-44 -3 -113 -4q-68 -2 -149 -2q-54 0 -107 2q-54 1 -92 4v-41q29 0 61 -26q33 -27 60 -105l54 -161
l-248 -793l-300 913q-11 32 -16 57q-6 25 -6 44q0 35 23 51q24 17 77 20v41q-38 -3 -95 -4q-58 -2 -126 -2q-60 0 -118 2q-59 1 -101 4v-41q34 0 73 -26q39 -27 68 -105l434 -1288h8h9h16l326 1055l356 -1055h8h8h17l387 1241q31 92 75 131q45 40 87 47v41q-30 -3 -66 -4
q-36 -2 -88 -2v0z" />
    <glyph glyph-name="Wacute" unicode="&#x1e82;" horiz-adv-x="1853" 
d="M1251 1763q28 19 41 40t13 41t-11 38q-11 16 -27 25t-36 9q-14 0 -30 -5q-15 -5 -32 -15q-60 -41 -134 -111q-73 -70 -210 -177l14 -27q156 77 252 111q96 35 160 71v0zM1704 1444q-55 0 -116 2q-61 1 -120 4v-41q89 -1 132 -29t43 -97q0 -31 -8 -72t-25 -93l-253 -792
l-294 911q-10 32 -16 57q-5 24 -5 42q0 46 36 59t104 14v41q-44 -3 -113 -4q-68 -2 -149 -2q-54 0 -107 2q-54 1 -92 4v-41q29 0 61 -26q33 -27 60 -105l54 -161l-248 -793l-300 913q-11 32 -16 57q-6 25 -6 44q0 35 23 51q24 17 77 20v41q-38 -3 -95 -4q-58 -2 -126 -2
q-60 0 -118 2q-59 1 -101 4v-41q34 0 73 -26q39 -27 68 -105l434 -1288h8h9h16l326 1055l356 -1055h8h8h17l387 1241q31 92 75 131q45 40 87 47v41q-30 -3 -66 -4q-36 -2 -88 -2v0z" />
    <glyph glyph-name="Wcircumflex" unicode="&#x174;" horiz-adv-x="1853" 
d="M909 1720q73 -39 190 -77q116 -39 242 -66l11 29q-135 47 -235 119q-99 72 -148 151h-37q-49 -79 -149 -151q-99 -72 -234 -119l10 -29q101 27 195 66q94 38 155 77v0zM1704 1444q-55 0 -116 2q-61 1 -120 4v-41q89 -1 132 -29t43 -97q0 -31 -8 -72t-25 -93l-253 -792
l-294 911q-10 32 -16 57q-5 24 -5 42q0 46 36 59t104 14v41q-44 -3 -113 -4q-68 -2 -149 -2q-54 0 -107 2q-54 1 -92 4v-41q29 0 61 -26q33 -27 60 -105l54 -161l-248 -793l-300 913q-11 32 -16 57q-6 25 -6 44q0 35 23 51q24 17 77 20v41q-38 -3 -95 -4q-58 -2 -126 -2
q-60 0 -118 2q-59 1 -101 4v-41q34 0 73 -26q39 -27 68 -105l434 -1288h8h9h16l326 1055l356 -1055h8h8h17l387 1241q31 92 75 131q45 40 87 47v41q-30 -3 -66 -4q-36 -2 -88 -2v0z" />
    <glyph glyph-name="Wdieresis" unicode="&#x1e84;" horiz-adv-x="1853" 
d="M733 1581q49 1 83 35q34 33 36 84q-2 49 -36 83t-83 36q-51 -2 -84 -36q-34 -34 -35 -83q1 -51 35 -84q33 -34 84 -35v0zM1167 1581q49 1 84 35q34 33 35 84q-1 49 -35 83q-35 34 -84 36q-50 -2 -84 -36t-35 -83q1 -51 35 -84q34 -34 84 -35v0zM1704 1444q-55 0 -116 2
q-61 1 -120 4v-41q89 -1 132 -29t43 -97q0 -31 -8 -72t-25 -93l-253 -792l-294 911q-10 32 -16 57q-5 24 -5 42q0 46 36 59t104 14v41q-44 -3 -113 -4q-68 -2 -149 -2q-54 0 -107 2q-54 1 -92 4v-41q29 0 61 -26q33 -27 60 -105l54 -161l-248 -793l-300 913q-11 32 -16 57
q-6 25 -6 44q0 35 23 51q24 17 77 20v41q-38 -3 -95 -4q-58 -2 -126 -2q-60 0 -118 2q-59 1 -101 4v-41q34 0 73 -26q39 -27 68 -105l434 -1288h8h9h16l326 1055l356 -1055h8h8h17l387 1241q31 92 75 131q45 40 87 47v41q-30 -3 -66 -4q-36 -2 -88 -2v0z" />
    <glyph glyph-name="Wgrave" unicode="&#x1e80;" horiz-adv-x="1853" 
d="M661 1763q64 -36 160 -71q96 -34 252 -111l14 27q-137 107 -210 177q-74 70 -134 111q-17 10 -32 15q-16 5 -30 5q-20 0 -36 -9t-27 -25q-11 -18 -11 -38t13 -41t41 -40v0zM1704 1444q-55 0 -116 2q-61 1 -120 4v-41q89 -1 132 -29t43 -97q0 -31 -8 -72t-25 -93
l-253 -792l-294 911q-10 32 -16 57q-5 24 -5 42q0 46 36 59t104 14v41q-44 -3 -113 -4q-68 -2 -149 -2q-54 0 -107 2q-54 1 -92 4v-41q29 0 61 -26q33 -27 60 -105l54 -161l-248 -793l-300 913q-11 32 -16 57q-6 25 -6 44q0 35 23 51q24 17 77 20v41q-38 -3 -95 -4
q-58 -2 -126 -2q-60 0 -118 2q-59 1 -101 4v-41q34 0 73 -26q39 -27 68 -105l434 -1288h8h9h16l326 1055l356 -1055h8h8h17l387 1241q31 92 75 131q45 40 87 47v41q-30 -3 -66 -4q-36 -2 -88 -2v0z" />
    <glyph glyph-name="X" unicode="X" horiz-adv-x="1298" 
d="M723 793l287 428q56 84 112 132q56 47 119 56v41q-31 -3 -76 -4q-45 -2 -98 -2q-55 0 -116 2q-61 1 -120 4v-41q77 -1 118 -19q41 -19 41 -63q0 -32 -22 -80q-21 -49 -67 -117l-201 -301l-319 488q-8 14 -13 25t-5 20q-1 23 32 34q32 11 105 11v43q-58 -3 -131 -5
q-74 -3 -158 -3q-54 0 -101 3q-48 3 -75 5v-43q44 -2 72 -23q29 -21 65 -79l401 -615l-309 -461q-56 -84 -112 -131q-57 -48 -119 -57v-41q31 3 76 5q45 1 98 1q57 0 136 -1q79 -2 140 -5v41q-83 1 -132 23q-49 21 -50 75q0 31 19 75q19 45 59 105l221 330l350 -536
q15 -22 15 -37q0 -20 -35 -27q-36 -6 -111 -6v-43q44 2 124 5q79 3 165 3q54 0 101 -3q48 -3 75 -5v43q-44 2 -72 23q-29 21 -65 79z" />
    <glyph glyph-name="Y" unicode="Y" horiz-adv-x="1210" 
d="M1051 1444q-55 0 -116 2q-61 1 -120 4v-41q86 -1 133 -25t48 -84q0 -31 -14 -75q-14 -43 -42 -101l-261 -520l-341 653q-11 22 -16 39q-5 18 -5 32q2 45 43 62q41 18 101 17v43q-67 -4 -143 -5q-75 -1 -144 -1q-52 0 -96 2q-45 1 -84 4v-43q21 2 49 -20q29 -22 70 -95
l415 -766v-309q3 -108 -30 -142q-34 -33 -136 -34v-41q44 3 113 5q69 1 150 1q72 0 141 -1q70 -2 119 -5v41q-102 1 -135 34q-34 34 -31 142v373l321 637q46 90 85 132q40 42 79 50v41q-30 -3 -66 -4q-36 -2 -87 -2v0z" />
    <glyph glyph-name="Yacute" unicode="&#xdd;" horiz-adv-x="1210" 
d="M924 1763q28 19 41 40t13 41t-11 38q-11 16 -27 25t-36 9q-14 0 -30 -5q-15 -5 -32 -15q-60 -41 -134 -111q-73 -70 -210 -177l14 -27q156 77 252 111q96 35 160 71v0zM1051 1444q-55 0 -116 2q-61 1 -120 4v-41q86 -1 133 -25t48 -84q0 -31 -14 -75q-14 -43 -42 -101
l-261 -520l-341 653q-11 22 -16 39q-5 18 -5 32q2 45 43 62q41 18 101 17v43q-67 -4 -143 -5q-75 -1 -144 -1q-52 0 -96 2q-45 1 -84 4v-43q21 2 49 -20q29 -22 70 -95l415 -766v-309q3 -108 -30 -142q-34 -33 -136 -34v-41q44 3 113 5q69 1 150 1q72 0 141 -1q70 -2 119 -5
v41q-102 1 -135 34q-34 34 -31 142v373l321 637q46 90 85 132q40 42 79 50v41q-30 -3 -66 -4q-36 -2 -87 -2v0z" />
    <glyph glyph-name="Ycircumflex" unicode="&#x176;" horiz-adv-x="1210" 
d="M582 1720q73 -39 190 -77q116 -39 242 -66l11 29q-135 47 -235 119q-99 72 -148 151h-37q-49 -79 -149 -151q-99 -72 -234 -119l10 -29q101 27 195 66q94 38 155 77v0zM1051 1444q-55 0 -116 2q-61 1 -120 4v-41q86 -1 133 -25t48 -84q0 -31 -14 -75q-14 -43 -42 -101
l-261 -520l-341 653q-11 22 -16 39q-5 18 -5 32q2 45 43 62q41 18 101 17v43q-67 -4 -143 -5q-75 -1 -144 -1q-52 0 -96 2q-45 1 -84 4v-43q21 2 49 -20q29 -22 70 -95l415 -766v-309q3 -108 -30 -142q-34 -33 -136 -34v-41q44 3 113 5q69 1 150 1q72 0 141 -1q70 -2 119 -5
v41q-102 1 -135 34q-34 34 -31 142v373l321 637q46 90 85 132q40 42 79 50v41q-30 -3 -66 -4q-36 -2 -87 -2v0z" />
    <glyph glyph-name="Ydieresis" unicode="&#x178;" horiz-adv-x="1210" 
d="M406 1581q49 1 83 35q34 33 36 84q-2 49 -36 83t-83 36q-51 -2 -84 -36q-34 -34 -35 -83q1 -51 35 -84q33 -34 84 -35v0zM840 1581q49 1 84 35q34 33 35 84q-1 49 -35 83q-35 34 -84 36q-50 -2 -84 -36t-35 -83q1 -51 35 -84q34 -34 84 -35v0zM1051 1444q-55 0 -116 2
q-61 1 -120 4v-41q86 -1 133 -25t48 -84q0 -31 -14 -75q-14 -43 -42 -101l-261 -520l-341 653q-11 22 -16 39q-5 18 -5 32q2 45 43 62q41 18 101 17v43q-67 -4 -143 -5q-75 -1 -144 -1q-52 0 -96 2q-45 1 -84 4v-43q21 2 49 -20q29 -22 70 -95l415 -766v-309
q3 -108 -30 -142q-34 -33 -136 -34v-41q44 3 113 5q69 1 150 1q72 0 141 -1q70 -2 119 -5v41q-102 1 -135 34q-34 34 -31 142v373l321 637q46 90 85 132q40 42 79 50v41q-30 -3 -66 -4q-36 -2 -87 -2v0z" />
    <glyph glyph-name="Ygrave" unicode="&#x1ef2;" horiz-adv-x="1210" 
d="M334 1763q64 -36 160 -71q96 -34 252 -111l14 27q-137 107 -210 177q-74 70 -134 111q-17 10 -32 15q-16 5 -30 5q-20 0 -36 -9t-27 -25q-11 -18 -11 -38t13 -41t41 -40v0zM1051 1444q-55 0 -116 2q-61 1 -120 4v-41q86 -1 133 -25t48 -84q0 -31 -14 -75
q-14 -43 -42 -101l-261 -520l-341 653q-11 22 -16 39q-5 18 -5 32q2 45 43 62q41 18 101 17v43q-67 -4 -143 -5q-75 -1 -144 -1q-52 0 -96 2q-45 1 -84 4v-43q21 2 49 -20q29 -22 70 -95l415 -766v-309q3 -108 -30 -142q-34 -33 -136 -34v-41q44 3 113 5q69 1 150 1
q72 0 141 -1q70 -2 119 -5v41q-102 1 -135 34q-34 34 -31 142v373l321 637q46 90 85 132q40 42 79 50v41q-30 -3 -66 -4q-36 -2 -87 -2v0z" />
    <glyph glyph-name="Z" unicode="Z" horiz-adv-x="1217" 
d="M1126 1409v41q-114 -4 -246 -5t-251 -1q-116 0 -255 1q-138 1 -255 5q7 -80 11 -151q3 -71 3 -111q0 -50 -1 -93q-2 -42 -5 -75h47q16 211 83 298q67 88 253 85h430l-854 -1362v-41q119 4 251 5t255 1q115 0 254 -1q138 -1 256 -5q-7 80 -11 151t-4 111q0 50 2 93
q2 42 5 75h-47q-16 -211 -83 -298q-67 -88 -253 -85h-432z" />
    <glyph glyph-name="Zacute" unicode="&#x179;" horiz-adv-x="1217" 
d="M823 1896q-60 -41 -134 -111q-73 -70 -210 -177l14 -27q156 77 252 111q96 35 160 71q28 19 41 40t13 41t-11 38q-11 16 -27 25t-36 9q-14 0 -30 -5q-15 -5 -32 -15v0zM1126 1409v41q-114 -4 -246 -5t-251 -1q-116 0 -255 1q-138 1 -255 5q7 -80 11 -151q3 -71 3 -111
q0 -50 -1 -93q-2 -42 -5 -75h47q16 211 83 298q67 88 253 85h430l-854 -1362v-41q119 4 251 5t255 1q115 0 254 -1q138 -1 256 -5q-7 80 -11 151t-4 111q0 50 2 93q2 42 5 75h-47q-16 -211 -83 -298q-67 -88 -253 -85h-432z" />
    <glyph glyph-name="Zcaron" unicode="&#x17d;" horiz-adv-x="1217" 
d="M989 1896q-101 -26 -195 -65t-155 -78q-73 39 -190 78q-116 39 -242 65l-10 -28q135 -48 234 -119q100 -72 149 -152h37q49 80 148 152q100 71 235 119zM1126 1409v41q-114 -4 -246 -5t-251 -1q-116 0 -255 1q-138 1 -255 5q7 -80 11 -151q3 -71 3 -111q0 -50 -1 -93
q-2 -42 -5 -75h47q16 211 83 298q67 88 253 85h430l-854 -1362v-41q119 4 251 5t255 1q115 0 254 -1q138 -1 256 -5q-7 80 -11 151t-4 111q0 50 2 93q2 42 5 75h-47q-16 -211 -83 -298q-67 -88 -253 -85h-432z" />
    <glyph glyph-name="Zdotaccent" unicode="&#x17b;" horiz-adv-x="1217" 
d="M604 1964q-55 -2 -92 -39q-38 -37 -39 -92q1 -55 39 -92q37 -38 92 -39q55 1 92 39q37 37 39 92q-2 55 -39 92t-92 39v0zM1126 1409v41q-114 -4 -246 -5t-251 -1q-116 0 -255 1q-138 1 -255 5q7 -80 11 -151q3 -71 3 -111q0 -50 -1 -93q-2 -42 -5 -75h47q16 211 83 298
q67 88 253 85h430l-854 -1362v-41q119 4 251 5t255 1q115 0 254 -1q138 -1 256 -5q-7 80 -11 151t-4 111q0 50 2 93q2 42 5 75h-47q-16 -211 -83 -298q-67 -88 -253 -85h-432z" />
    <glyph glyph-name="glyph128" horiz-adv-x="1409" 
d="M853 1913q-9 3 -18 5q-10 2 -19 2q-21 0 -39 -11q-18 -12 -30 -37q-19 -53 -26 -127q-7 -73 -34 -178l27 -13q59 91 106 147t72 107q7 18 7 34q0 24 -13 43q-13 18 -33 28v0zM760 1479q-291 -5 -468 -211q-178 -207 -183 -555q4 -354 179 -547q174 -193 470 -195
q130 2 218 40t161 93q26 17 42 17q22 0 33 -29q12 -29 17 -92h47q-4 76 -6 192t-2 300h-47q-14 -122 -33 -194q-19 -73 -62 -130q-61 -83 -158 -120t-192 -36q-202 1 -330 183q-129 182 -133 526q3 336 121 527q119 191 322 194q107 0 202 -38q94 -39 160 -122
q42 -51 62 -114q21 -63 41 -189h47q0 176 2 287t6 184h-47q-5 -63 -18 -92q-13 -30 -34 -30q-18 0 -40 18q-66 54 -155 92q-89 39 -222 41v0z" />
    <glyph glyph-name="glyph129" horiz-adv-x="1446" 
d="M874 1913q-9 3 -18 5q-10 2 -19 2q-21 0 -39 -11q-18 -12 -30 -37q-19 -53 -26 -127q-7 -73 -34 -178l27 -13q59 91 106 147t72 107q7 18 7 34q0 24 -13 43q-13 18 -33 28v0zM1372 1450q-35 -3 -86 -4q-51 -2 -104 -2q-54 0 -112 2q-58 1 -97 4v-41q117 -2 153 -44
q36 -43 33 -153v-876l-723 1114q-34 -3 -74 -4q-41 -2 -86 -2q-53 0 -104 2q-51 1 -86 4v-41q102 -1 135 -34q34 -34 31 -142v-995q3 -110 -31 -152q-33 -43 -135 -45v-41q35 3 86 5q51 1 104 1q54 0 112 -1q58 -2 97 -5v41q-116 2 -153 45q-36 42 -33 152v1081l860 -1329
h47v1222q-3 110 31 153q33 42 135 44v41z" />
    <glyph glyph-name="glyph130" horiz-adv-x="1518" 
d="M864 1913q-9 3 -18 5q-10 2 -19 2q-21 0 -39 -11q-18 -12 -30 -37q-19 -53 -26 -127q-7 -73 -34 -178l27 -13q59 91 106 147t72 107q7 18 7 34q0 24 -13 43q-13 18 -33 28v0zM760 1479q-291 -5 -468 -211q-178 -207 -183 -555q4 -354 179 -547q174 -193 470 -195
q291 5 468 211q178 207 183 555q-4 354 -179 547q-174 193 -470 195v0zM752 1442q194 -4 321 -193q126 -189 131 -520q-2 -323 -119 -519q-117 -197 -319 -202q-194 4 -321 193t-132 520q2 323 119 520q117 196 320 201v0z" />
    <glyph glyph-name="glyph131" horiz-adv-x="1106" 
d="M671 1913q-9 3 -18 5q-10 2 -19 2q-21 0 -39 -11q-18 -12 -30 -37q-19 -53 -26 -127q-7 -73 -34 -178l27 -13q59 91 106 147t72 107q7 18 7 34q0 24 -13 43q-13 18 -33 28v0zM524 1473q-157 1 -268 -87q-112 -87 -117 -268q5 -169 109 -272q105 -103 256 -187
q145 -83 231 -167q86 -85 88 -207q-4 -144 -83 -209t-183 -64q-194 6 -278 140q-85 133 -95 325h-47q0 -212 -2 -322t-6 -169h47q6 44 16 67t29 23q12 0 29 -7q17 -6 41 -22q43 -29 108 -52t172 -24q183 0 307 97q123 97 128 292q-3 161 -105 263q-101 103 -264 198
q-142 81 -241 161q-99 79 -103 214q2 107 70 172q69 64 180 66q169 -6 248 -124q78 -117 88 -270h47q0 189 3 279q2 90 7 139h-47q-6 -44 -16 -67t-29 -23q-14 0 -30 7q-16 6 -40 22q-39 29 -95 52t-155 24v0z" />
    <glyph glyph-name="glyph132" horiz-adv-x="1217" 
d="M712 1913q-9 3 -18 5q-10 2 -19 2q-21 0 -39 -11q-18 -12 -30 -37q-19 -53 -26 -127q-7 -73 -34 -178l27 -13q59 91 106 147t72 107q7 18 7 34q0 24 -13 43q-13 18 -33 28v0zM1126 1409v41q-114 -4 -246 -5t-251 -1q-116 0 -255 1q-138 1 -255 5q7 -80 11 -151
q3 -71 3 -111q0 -50 -1 -93q-2 -42 -5 -75h47q16 211 83 298q67 88 253 85h430l-854 -1362v-41q119 4 251 5t255 1q115 0 254 -1q138 -1 256 -5q-7 80 -11 151t-4 111q0 50 2 93q2 42 5 75h-47q-16 -211 -83 -298q-67 -88 -253 -85h-432z" />
    <glyph glyph-name="a" unicode="a" horiz-adv-x="1020" 
d="M510 1083q-98 -1 -171 -24q-72 -23 -116 -53q-43 -29 -69 -65t-27 -81q0 -56 29 -91t82 -36q55 0 87 29t33 82q-1 51 -29 83t-67 42q37 43 93 59q56 15 110 14q81 3 135 -38q53 -42 55 -168v-127q-2 -59 -71 -96t-174 -78q-155 -61 -242 -131q-87 -71 -88 -189
q3 -119 79 -174q75 -56 181 -55q76 -2 161 37q86 38 154 145q-2 -74 34 -127q37 -53 142 -55q63 1 105 21q41 21 82 54l-23 35q-21 -18 -43 -30q-22 -13 -49 -13q-35 0 -49 24t-14 73v569q1 107 -17 173q-17 66 -65 114q-36 36 -98 56q-63 21 -150 21v0zM655 223
q-52 -83 -111 -119q-58 -37 -120 -36q-72 0 -117 44q-46 44 -47 136q4 116 66 173t133 87q95 46 138 70t58 47v-402z" />
    <glyph glyph-name="aacute" unicode="&#xe1;" horiz-adv-x="1020" 
d="M723 1665q-19 15 -45 15q-19 0 -39 -11q-20 -10 -39 -35q-42 -58 -87 -150q-44 -92 -136 -239l22 -18q121 125 199 190q79 65 125 121q14 19 21 37q7 17 7 33q0 17 -8 32q-7 14 -20 25v0zM510 1083q-98 -1 -171 -24q-72 -23 -116 -53q-43 -29 -69 -65t-27 -81
q0 -56 29 -91t82 -36q55 0 87 29t33 82q-1 51 -29 83t-67 42q37 43 93 59q56 15 110 14q81 3 135 -38q53 -42 55 -168v-127q-2 -59 -71 -96t-174 -78q-155 -61 -242 -131q-87 -71 -88 -189q3 -119 79 -174q75 -56 181 -55q76 -2 161 37q86 38 154 145q-2 -74 34 -127
q37 -53 142 -55q63 1 105 21q41 21 82 54l-23 35q-21 -18 -43 -30q-22 -13 -49 -13q-35 0 -49 24t-14 73v569q1 107 -17 173q-17 66 -65 114q-36 36 -98 56q-63 21 -150 21v0zM655 223q-52 -83 -111 -119q-58 -37 -120 -36q-72 0 -117 44q-46 44 -47 136q4 116 66 173
t133 87q95 46 138 70t58 47v-402z" />
    <glyph glyph-name="abreve" unicode="&#x103;" horiz-adv-x="1020" 
d="M834 1614q-40 -73 -121 -133q-80 -60 -211 -64q-131 4 -211 64t-121 133l-34 -19q43 -109 134 -201t232 -98q142 6 233 98t134 201zM510 1083q-98 -1 -171 -24q-72 -23 -116 -53q-43 -29 -69 -65t-27 -81q0 -56 29 -91t82 -36q55 0 87 29t33 82q-1 51 -29 83t-67 42
q37 43 93 59q56 15 110 14q81 3 135 -38q53 -42 55 -168v-127q-2 -59 -71 -96t-174 -78q-155 -61 -242 -131q-87 -71 -88 -189q3 -119 79 -174q75 -56 181 -55q76 -2 161 37q86 38 154 145q-2 -74 34 -127q37 -53 142 -55q63 1 105 21q41 21 82 54l-23 35q-21 -18 -43 -30
q-22 -13 -49 -13q-35 0 -49 24t-14 73v569q1 107 -17 173q-17 66 -65 114q-36 36 -98 56q-63 21 -150 21v0zM655 223q-52 -83 -111 -119q-58 -37 -120 -36q-72 0 -117 44q-46 44 -47 136q4 116 66 173t133 87q95 46 138 70t58 47v-402z" />
    <glyph glyph-name="acircumflex" unicode="&#xe2;" horiz-adv-x="1020" 
d="M485 1642q-43 -105 -132 -198q-90 -94 -210 -154l17 -28q87 39 168 94q81 54 135 110q67 -56 169 -110q103 -55 216 -94l16 28q-120 60 -210 154q-89 93 -132 198h-37zM510 1083q-98 -1 -171 -24q-72 -23 -116 -53q-43 -29 -69 -65t-27 -81q0 -56 29 -91t82 -36
q55 0 87 29t33 82q-1 51 -29 83t-67 42q37 43 93 59q56 15 110 14q81 3 135 -38q53 -42 55 -168v-127q-2 -59 -71 -96t-174 -78q-155 -61 -242 -131q-87 -71 -88 -189q3 -119 79 -174q75 -56 181 -55q76 -2 161 37q86 38 154 145q-2 -74 34 -127q37 -53 142 -55q63 1 105 21
q41 21 82 54l-23 35q-21 -18 -43 -30q-22 -13 -49 -13q-35 0 -49 24t-14 73v569q1 107 -17 173q-17 66 -65 114q-36 36 -98 56q-63 21 -150 21v0zM655 223q-52 -83 -111 -119q-58 -37 -120 -36q-72 0 -117 44q-46 44 -47 136q4 116 66 173t133 87q95 46 138 70t58 47v-402z
" />
    <glyph glyph-name="adieresis" unicode="&#xe4;" horiz-adv-x="1020" 
d="M289 1522q-50 -2 -84 -36t-35 -83q1 -51 35 -84q34 -34 84 -35q49 1 84 35q34 33 35 84q-1 49 -35 83q-35 34 -84 36v0zM723 1522q-50 -2 -83 -36q-34 -34 -35 -83q1 -51 35 -84q33 -34 83 -35q49 1 84 35q34 33 35 84q-1 49 -35 83q-35 34 -84 36v0zM510 1083
q-98 -1 -171 -24q-72 -23 -116 -53q-43 -29 -69 -65t-27 -81q0 -56 29 -91t82 -36q55 0 87 29t33 82q-1 51 -29 83t-67 42q37 43 93 59q56 15 110 14q81 3 135 -38q53 -42 55 -168v-127q-2 -59 -71 -96t-174 -78q-155 -61 -242 -131q-87 -71 -88 -189q3 -119 79 -174
q75 -56 181 -55q76 -2 161 37q86 38 154 145q-2 -74 34 -127q37 -53 142 -55q63 1 105 21q41 21 82 54l-23 35q-21 -18 -43 -30q-22 -13 -49 -13q-35 0 -49 24t-14 73v569q1 107 -17 173q-17 66 -65 114q-36 36 -98 56q-63 21 -150 21v0zM655 223q-52 -83 -111 -119
q-58 -37 -120 -36q-72 0 -117 44q-46 44 -47 136q4 116 66 173t133 87q95 46 138 70t58 47v-402z" />
    <glyph glyph-name="agrave" unicode="&#xe0;" horiz-adv-x="1020" 
d="M252 1665q-13 -11 -20 -25q-8 -15 -8 -32q0 -16 7 -33q7 -18 21 -37q46 -56 124 -121t199 -190l23 18q-92 147 -136 239q-45 92 -87 150q-19 25 -39 35q-20 11 -40 11q-24 0 -44 -15v0zM510 1083q-98 -1 -171 -24q-72 -23 -116 -53q-43 -29 -69 -65t-27 -81q0 -56 29 -91
t82 -36q55 0 87 29t33 82q-1 51 -29 83t-67 42q37 43 93 59q56 15 110 14q81 3 135 -38q53 -42 55 -168v-127q-2 -59 -71 -96t-174 -78q-155 -61 -242 -131q-87 -71 -88 -189q3 -119 79 -174q75 -56 181 -55q76 -2 161 37q86 38 154 145q-2 -74 34 -127q37 -53 142 -55
q63 1 105 21q41 21 82 54l-23 35q-21 -18 -43 -30q-22 -13 -49 -13q-35 0 -49 24t-14 73v569q1 107 -17 173q-17 66 -65 114q-36 36 -98 56q-63 21 -150 21v0zM655 223q-52 -83 -111 -119q-58 -37 -120 -36q-72 0 -117 44q-46 44 -47 136q4 116 66 173t133 87q95 46 138 70
t58 47v-402z" />
    <glyph glyph-name="amacron" unicode="&#x101;" horiz-adv-x="1020" 
d="M817 1407v51h-639v-51h639zM510 1083q-98 -1 -171 -24q-72 -23 -116 -53q-43 -29 -69 -65t-27 -81q0 -56 29 -91t82 -36q55 0 87 29t33 82q-1 51 -29 83t-67 42q37 43 93 59q56 15 110 14q81 3 135 -38q53 -42 55 -168v-127q-2 -59 -71 -96t-174 -78q-155 -61 -242 -131
q-87 -71 -88 -189q3 -119 79 -174q75 -56 181 -55q76 -2 161 37q86 38 154 145q-2 -74 34 -127q37 -53 142 -55q63 1 105 21q41 21 82 54l-23 35q-21 -18 -43 -30q-22 -13 -49 -13q-35 0 -49 24t-14 73v569q1 107 -17 173q-17 66 -65 114q-36 36 -98 56q-63 21 -150 21v0z
M655 223q-52 -83 -111 -119q-58 -37 -120 -36q-72 0 -117 44q-46 44 -47 136q4 116 66 173t133 87q95 46 138 70t58 47v-402z" />
    <glyph glyph-name="aogonek" unicode="&#x105;" horiz-adv-x="1020" 
d="M820 -287q-42 1 -65 25q-23 25 -23 65q-1 50 39 100q41 50 139 93q4 1 9 3q4 1 8 5q24 10 46 24q22 15 45 33l-23 35q-21 -18 -43 -30q-22 -13 -49 -13q-35 0 -49 24t-14 73v569q1 107 -17 173q-17 66 -65 114q-36 36 -98 56q-63 21 -150 21q-98 -1 -171 -24
q-72 -23 -116 -53q-43 -29 -69 -65t-27 -81q0 -56 29 -91t82 -36q55 0 87 29t33 82q-1 51 -29 83t-67 42q37 43 93 59q56 15 110 14q81 3 135 -38q53 -42 55 -168v-127q-2 -59 -71 -96t-174 -78q-155 -61 -242 -131q-87 -71 -88 -189q3 -119 79 -174q75 -56 181 -55
q76 -2 161 37q86 38 154 145q-2 -70 31 -122t125 -59q-110 -45 -169 -106t-60 -133q1 -61 44 -96q44 -36 118 -37q68 0 126 34q58 33 105 105l-30 27q-21 -29 -53 -48q-33 -19 -72 -20v0zM655 223q-52 -83 -111 -119q-58 -37 -120 -36q-72 0 -117 44q-46 44 -47 136
q4 116 66 173t133 87q95 46 138 70t58 47v-402z" />
    <glyph glyph-name="aring" unicode="&#xe5;" horiz-adv-x="1020" 
d="M504 1620q-80 -1 -137 -50q-56 -50 -59 -136q3 -89 59 -138q57 -50 137 -51q83 1 140 51q57 49 59 138q-2 86 -59 136q-57 49 -140 50v0zM504 1577q54 0 97 -37t45 -108q-2 -73 -45 -108q-43 -36 -97 -36q-51 0 -94 36q-42 35 -45 108q3 71 45 108q43 37 94 37v0z
M510 1083q-98 -1 -171 -24q-72 -23 -116 -53q-43 -29 -69 -65t-27 -81q0 -56 29 -91t82 -36q55 0 87 29t33 82q-1 51 -29 83t-67 42q37 43 93 59q56 15 110 14q81 3 135 -38q53 -42 55 -168v-127q-2 -59 -71 -96t-174 -78q-155 -61 -242 -131q-87 -71 -88 -189
q3 -119 79 -174q75 -56 181 -55q76 -2 161 37q86 38 154 145q-2 -74 34 -127q37 -53 142 -55q63 1 105 21q41 21 82 54l-23 35q-21 -18 -43 -30q-22 -13 -49 -13q-35 0 -49 24t-14 73v569q1 107 -17 173q-17 66 -65 114q-36 36 -98 56q-63 21 -150 21v0zM655 223
q-52 -83 -111 -119q-58 -37 -120 -36q-72 0 -117 44q-46 44 -47 136q4 116 66 173t133 87q95 46 138 70t58 47v-402z" />
    <glyph glyph-name="atilde" unicode="&#xe3;" horiz-adv-x="1020" 
d="M353 1573q-80 1 -145 -49t-99 -162l29 -14q35 57 75 84q39 26 83 26q83 -9 144 -68q60 -60 167 -69q78 -1 143 49q65 49 99 162l-29 14q-35 -58 -75 -83q-39 -26 -83 -25q-84 8 -144 68q-60 59 -165 67v0zM510 1083q-98 -1 -171 -24q-72 -23 -116 -53q-43 -29 -69 -65
t-27 -81q0 -56 29 -91t82 -36q55 0 87 29t33 82q-1 51 -29 83t-67 42q37 43 93 59q56 15 110 14q81 3 135 -38q53 -42 55 -168v-127q-2 -59 -71 -96t-174 -78q-155 -61 -242 -131q-87 -71 -88 -189q3 -119 79 -174q75 -56 181 -55q76 -2 161 37q86 38 154 145
q-2 -74 34 -127q37 -53 142 -55q63 1 105 21q41 21 82 54l-23 35q-21 -18 -43 -30q-22 -13 -49 -13q-35 0 -49 24t-14 73v569q1 107 -17 173q-17 66 -65 114q-36 36 -98 56q-63 21 -150 21v0zM655 223q-52 -83 -111 -119q-58 -37 -120 -36q-72 0 -117 44q-46 44 -47 136
q4 116 66 173t133 87q95 46 138 70t58 47v-402z" />
    <glyph glyph-name="ae" unicode="&#xe6;" horiz-adv-x="1520" 
d="M1118 57q-115 1 -200 117t-89 328q0 34 2 68q1 33 5 63h596q-1 231 -96 341t-267 109q-90 0 -163 -33q-73 -32 -126 -97q-43 74 -117 103q-74 28 -169 27q-101 -1 -170 -22t-111 -51q-43 -29 -69 -67q-26 -37 -27 -81q1 -48 30 -78q30 -29 78 -30q48 0 80 29t33 81
q-1 44 -24 70q-23 27 -62 35q37 43 93 59q55 15 104 14q77 3 137 -38q60 -42 63 -168v-127q-2 -56 -68 -94q-67 -37 -178 -83q-146 -59 -231 -133q-86 -75 -88 -202q4 -122 83 -174q78 -53 179 -52q107 -2 197 59t154 203q47 -127 143 -194t237 -68q138 4 224 86
q87 82 118 189l-41 16q-48 -113 -113 -160q-66 -47 -147 -45v0zM1061 1044q92 -4 135 -111q44 -106 39 -261h-403q18 193 80 283q63 90 149 89v0zM649 223q-50 -98 -109 -135t-116 -35q-61 -2 -109 38q-48 39 -51 140q2 109 61 176q60 67 158 113q44 21 92 48q47 27 74 57
v-402z" />
    <glyph glyph-name="b" unicode="b" horiz-adv-x="1153" 
d="M668 1083q-106 -1 -190 -57q-83 -56 -130 -162v740q-45 -16 -99 -22q-54 -7 -114 -7q-62 0 -127 6v-43q88 0 123 -44q34 -44 33 -136v-1258q0 -31 -3 -61q-4 -30 -11 -57l34 -15l146 124q55 -60 125 -90q71 -30 145 -30q190 0 321 140q131 139 136 415q-3 280 -111 418
q-107 139 -278 139v0zM584 18q-64 0 -125 26q-61 25 -111 76v647q34 126 105 191q71 64 155 64q127 0 189 -123q61 -124 61 -373q0 -260 -69 -384q-68 -125 -205 -124v0z" />
    <glyph glyph-name="c" unicode="c" horiz-adv-x="995" 
d="M571 1083q-214 -4 -343 -158q-130 -155 -134 -411q5 -256 131 -398q127 -143 322 -145q163 5 255 93q92 87 122 192l-39 14q-56 -115 -136 -164q-80 -48 -161 -47q-122 -4 -207 107q-84 110 -88 379q6 285 96 396t197 106q60 -1 111 -25q51 -23 73 -61q-36 -10 -61 -38
q-24 -29 -25 -75q1 -50 33 -76q32 -27 80 -27q47 0 77 30q30 29 31 85q0 47 -25 87t-71 71q-50 32 -111 49q-62 16 -127 16v0z" />
    <glyph glyph-name="cacute" unicode="&#x107;" horiz-adv-x="995" 
d="M758 1665q-19 15 -45 15q-19 0 -39 -11q-20 -10 -39 -35q-42 -58 -87 -150q-44 -92 -136 -239l22 -18q121 125 199 190q79 65 125 121q14 19 21 37q7 17 7 33q0 17 -8 32q-7 14 -20 25v0zM571 1083q-214 -4 -343 -158q-130 -155 -134 -411q5 -256 131 -398
q127 -143 322 -145q163 5 255 93q92 87 122 192l-39 14q-56 -115 -136 -164q-80 -48 -161 -47q-122 -4 -207 107q-84 110 -88 379q6 285 96 396t197 106q60 -1 111 -25q51 -23 73 -61q-36 -10 -61 -38q-24 -29 -25 -75q1 -50 33 -76q32 -27 80 -27q47 0 77 30q30 29 31 85
q0 47 -25 87t-71 71q-50 32 -111 49q-62 16 -127 16v0z" />
    <glyph glyph-name="ccaron" unicode="&#x10d;" horiz-adv-x="995" 
d="M863 1642q-88 -39 -169 -94q-81 -54 -134 -110q-67 56 -170 110q-103 55 -215 94l-17 -28q120 -60 210 -154q89 -93 132 -198h37q43 105 132 198q90 94 210 154zM571 1083q-214 -4 -343 -158q-130 -155 -134 -411q5 -256 131 -398q127 -143 322 -145q163 5 255 93
q92 87 122 192l-39 14q-56 -115 -136 -164q-80 -48 -161 -47q-122 -4 -207 107q-84 110 -88 379q6 285 96 396t197 106q60 -1 111 -25q51 -23 73 -61q-36 -10 -61 -38q-24 -29 -25 -75q1 -50 33 -76q32 -27 80 -27q47 0 77 30q30 29 31 85q0 47 -25 87t-71 71
q-50 32 -111 49q-62 16 -127 16v0z" />
    <glyph glyph-name="ccedilla" unicode="&#xe7;" horiz-adv-x="995" 
d="M547 -29q163 5 255 93q92 87 122 192l-39 14q-56 -115 -136 -164q-80 -48 -161 -47q-122 -4 -207 107q-84 110 -88 379q6 285 96 396t197 106q60 -1 111 -25q51 -23 73 -61q-36 -10 -61 -38q-24 -29 -25 -75q1 -50 33 -76q32 -27 80 -27q47 0 77 30q30 29 31 85
q0 47 -25 87t-71 71q-50 32 -111 49q-62 16 -127 16q-214 -4 -343 -158q-130 -155 -134 -411q3 -230 108 -370q105 -139 273 -167l-58 -174q25 8 54 12q29 3 47 3q41 0 64 -14q22 -15 22 -44q-4 -54 -62 -73q-59 -20 -123 -19q-24 0 -45 2t-32 4l-9 -36q28 -10 71 -16
q43 -7 99 -7q79 -1 153 35t79 121q-1 46 -34 71t-91 25q-34 0 -64 -4q-31 -4 -57 -10l39 118h19z" />
    <glyph glyph-name="ccircumflex" unicode="&#x109;" horiz-adv-x="995" 
d="M520 1642q-43 -105 -132 -198q-90 -94 -210 -154l17 -28q87 39 168 94q81 54 135 110q67 -56 169 -110q103 -55 216 -94l16 28q-120 60 -210 154q-89 93 -132 198h-37zM571 1083q-214 -4 -343 -158q-130 -155 -134 -411q5 -256 131 -398q127 -143 322 -145q163 5 255 93
q92 87 122 192l-39 14q-56 -115 -136 -164q-80 -48 -161 -47q-122 -4 -207 107q-84 110 -88 379q6 285 96 396t197 106q60 -1 111 -25q51 -23 73 -61q-36 -10 -61 -38q-24 -29 -25 -75q1 -50 33 -76q32 -27 80 -27q47 0 77 30q30 29 31 85q0 47 -25 87t-71 71
q-50 32 -111 49q-62 16 -127 16v0z" />
    <glyph glyph-name="cdotaccent" unicode="&#x10b;" horiz-adv-x="995" 
d="M568 1567q-55 -2 -92 -39q-38 -37 -39 -92q1 -55 39 -92q37 -38 92 -39q55 1 92 39q37 37 39 92q-2 55 -39 92t-92 39v0zM571 1083q-214 -4 -343 -158q-130 -155 -134 -411q5 -256 131 -398q127 -143 322 -145q163 5 255 93q92 87 122 192l-39 14q-56 -115 -136 -164
q-80 -48 -161 -47q-122 -4 -207 107q-84 110 -88 379q6 285 96 396t197 106q60 -1 111 -25q51 -23 73 -61q-36 -10 -61 -38q-24 -29 -25 -75q1 -50 33 -76q32 -27 80 -27q47 0 77 30q30 29 31 85q0 47 -25 87t-71 71q-50 32 -111 49q-62 16 -127 16v0z" />
    <glyph glyph-name="d" unicode="d" horiz-adv-x="1190" 
d="M991 1606q-45 -16 -99 -22q-54 -7 -114 -7q-62 0 -127 6v-43q88 0 123 -44q34 -44 33 -136v-398q-41 65 -106 93q-66 29 -140 28q-191 0 -324 -139q-134 -138 -139 -418q1 -279 112 -417q112 -138 306 -138q107 0 180 48t111 140v-182q45 16 99 22q54 7 114 7
q62 0 127 -6v43q-88 0 -123 44q-34 44 -33 136v1383zM575 33q-137 0 -208 122q-71 123 -70 371q1 259 79 385t202 125q80 1 139 -37t90 -121v-609q-26 -116 -89 -176q-64 -60 -143 -60v0z" />
    <glyph glyph-name="eth" unicode="&#xf0;" horiz-adv-x="1135" 
d="M909 1538l-18 37l-289 -141q-73 52 -153 93q-81 41 -166 75l-17 -35q71 -33 139 -72q68 -40 131 -93l-356 -173l19 -37l369 181q73 -68 129 -165t89 -231q-40 54 -101 80t-144 26q-222 -10 -334 -179q-113 -169 -113 -382q4 -275 129 -413t330 -138q187 -1 324 159
q136 159 143 488q-3 276 -106 470q-104 193 -275 319zM543 12q-103 -3 -175 115t-75 391q3 288 77 407q73 119 185 115q83 5 162 -52q78 -57 104 -239q2 -31 3 -64t1 -67q-4 -347 -87 -480q-84 -132 -195 -126v0z" />
    <glyph glyph-name="dcaron" unicode="&#x10f;" horiz-adv-x="1190" 
d="M991 1606q-45 -16 -99 -22q-54 -7 -114 -7q-62 0 -127 6v-43q88 0 123 -44q34 -44 33 -136v-398q-41 65 -106 93q-66 29 -140 28q-191 0 -324 -139q-134 -138 -139 -418q1 -279 112 -417q112 -138 306 -138q107 0 180 48t111 140v-182q45 16 99 22q54 7 114 7
q62 0 127 -6v43q-88 0 -123 44q-34 44 -33 136v1383zM1140 1153q64 131 101 221q36 89 37 148q0 20 -3 45q-3 26 -8 39q-24 -10 -53 -17t-69 -7q-15 0 -33 1v-43q25 0 33 -21q9 -21 8 -61q0 -25 -8 -93q-9 -67 -33 -204zM575 33q-137 0 -208 122q-71 123 -70 371
q1 259 79 385t202 125q80 1 139 -37t90 -121v-609q-26 -116 -89 -176q-64 -60 -143 -60v0z" />
    <glyph glyph-name="dcroat" unicode="&#x111;" horiz-adv-x="1190" 
d="M991 1245h176v41h-176v320q-45 -16 -99 -22q-54 -7 -114 -7q-62 0 -127 6v-43q88 0 123 -44q34 -44 33 -136v-74h-365v-41h365v-283q-41 65 -106 93q-66 29 -140 28q-191 0 -324 -139q-134 -138 -139 -418q1 -279 112 -417q112 -138 306 -138q107 0 180 48t111 140v-182
q45 16 99 22q54 7 114 7q62 0 127 -6v43q-88 0 -123 44q-34 44 -33 136v1022zM575 33q-137 0 -208 122q-71 123 -70 371q1 259 79 385t202 125q80 1 139 -37t90 -121v-609q-26 -116 -89 -176q-64 -60 -143 -60v0z" />
    <glyph glyph-name="e" unicode="e" horiz-adv-x="1036" 
d="M907 262q-54 -113 -131 -160t-170 -45q-123 1 -215 117q-93 116 -98 328q0 34 2 68q1 33 5 63h640q-1 231 -101 341q-101 110 -282 109q-213 -3 -337 -155q-123 -153 -126 -426q2 -239 124 -383q123 -144 347 -148q153 4 251 86t132 189zM549 1044q103 -4 151 -111
q48 -106 43 -261h-446q19 193 89 283q69 90 163 89v0z" />
    <glyph glyph-name="eacute" unicode="&#xe9;" horiz-adv-x="1036" 
d="M774 1538q14 19 21 37q7 17 7 33q0 17 -8 32q-7 14 -20 25q-19 15 -45 15q-19 0 -39 -11q-20 -10 -39 -35q-42 -58 -87 -150q-44 -92 -136 -239l22 -18q121 125 199 190q79 65 125 121v0zM907 262q-54 -113 -131 -160t-170 -45q-123 1 -215 117q-93 116 -98 328
q0 34 2 68q1 33 5 63h640q-1 231 -101 341q-101 110 -282 109q-213 -3 -337 -155q-123 -153 -126 -426q2 -239 124 -383q123 -144 347 -148q153 4 251 86t132 189zM549 1044q103 -4 151 -111q48 -106 43 -261h-446q19 193 89 283q69 90 163 89v0z" />
    <glyph glyph-name="ebreve" unicode="&#x115;" horiz-adv-x="1036" 
d="M553 1296q142 6 233 98t134 201l-35 19q-40 -73 -121 -133q-80 -60 -211 -64q-131 4 -211 64t-121 133l-34 -19q43 -109 134 -201t232 -98v0zM907 262q-54 -113 -131 -160t-170 -45q-123 1 -215 117q-93 116 -98 328q0 34 2 68q1 33 5 63h640q-1 231 -101 341
q-101 110 -282 109q-213 -3 -337 -155q-123 -153 -126 -426q2 -239 124 -383q123 -144 347 -148q153 4 251 86t132 189zM549 1044q103 -4 151 -111q48 -106 43 -261h-446q19 193 89 283q69 90 163 89v0z" />
    <glyph glyph-name="ecaron" unicode="&#x11b;" horiz-adv-x="1036" 
d="M553 1262q43 105 132 198q90 94 210 154l-16 28q-88 -39 -169 -94q-81 -54 -134 -110q-67 56 -170 110q-103 55 -215 94l-17 -28q120 -60 210 -154q89 -93 132 -198h37zM907 262q-54 -113 -131 -160t-170 -45q-123 1 -215 117q-93 116 -98 328q0 34 2 68q1 33 5 63h640
q-1 231 -101 341q-101 110 -282 109q-213 -3 -337 -155q-123 -153 -126 -426q2 -239 124 -383q123 -144 347 -148q153 4 251 86t132 189zM549 1044q103 -4 151 -111q48 -106 43 -261h-446q19 193 89 283q69 90 163 89v0z" />
    <glyph glyph-name="ecircumflex" unicode="&#xea;" horiz-adv-x="1036" 
d="M514 1466q67 -56 169 -110q103 -55 216 -94l16 28q-120 60 -210 154q-89 93 -132 198h-37q-43 -105 -132 -198q-90 -94 -210 -154l17 -28q87 39 168 94q81 54 135 110v0zM907 262q-54 -113 -131 -160t-170 -45q-123 1 -215 117q-93 116 -98 328q0 34 2 68q1 33 5 63h640
q-1 231 -101 341q-101 110 -282 109q-213 -3 -337 -155q-123 -153 -126 -426q2 -239 124 -383q123 -144 347 -148q153 4 251 86t132 189zM549 1044q103 -4 151 -111q48 -106 43 -261h-446q19 193 89 283q69 90 163 89v0z" />
    <glyph glyph-name="edieresis" unicode="&#xeb;" horiz-adv-x="1036" 
d="M340 1284q49 1 84 35q34 33 35 84q-1 49 -35 83q-35 34 -84 36q-50 -2 -84 -36t-35 -83q1 -51 35 -84q34 -34 84 -35v0zM774 1284q49 1 84 35q34 33 35 84q-1 49 -35 83q-35 34 -84 36q-50 -2 -83 -36q-34 -34 -35 -83q1 -51 35 -84q33 -34 83 -35v0zM907 262
q-54 -113 -131 -160t-170 -45q-123 1 -215 117q-93 116 -98 328q0 34 2 68q1 33 5 63h640q-1 231 -101 341q-101 110 -282 109q-213 -3 -337 -155q-123 -153 -126 -426q2 -239 124 -383q123 -144 347 -148q153 4 251 86t132 189zM549 1044q103 -4 151 -111q48 -106 43 -261
h-446q19 193 89 283q69 90 163 89v0z" />
    <glyph glyph-name="edotaccent" unicode="&#x117;" horiz-adv-x="1036" 
d="M555 1305q55 1 92 39q37 37 39 92q-2 55 -39 92t-92 39q-55 -2 -92 -39q-38 -37 -39 -92q1 -55 39 -92q37 -38 92 -39v0zM907 262q-54 -113 -131 -160t-170 -45q-123 1 -215 117q-93 116 -98 328q0 34 2 68q1 33 5 63h640q-1 231 -101 341q-101 110 -282 109
q-213 -3 -337 -155q-123 -153 -126 -426q2 -239 124 -383q123 -144 347 -148q153 4 251 86t132 189zM549 1044q103 -4 151 -111q48 -106 43 -261h-446q19 193 89 283q69 90 163 89v0z" />
    <glyph glyph-name="egrave" unicode="&#xe8;" horiz-adv-x="1036" 
d="M649 1245q-92 147 -136 239q-45 92 -87 150q-19 25 -39 35q-20 11 -40 11q-24 0 -44 -15q-13 -11 -20 -25q-8 -15 -8 -32q0 -16 7 -33q7 -18 21 -37q46 -56 124 -121t199 -190zM907 262q-54 -113 -131 -160t-170 -45q-123 1 -215 117q-93 116 -98 328q0 34 2 68
q1 33 5 63h640q-1 231 -101 341q-101 110 -282 109q-213 -3 -337 -155q-123 -153 -126 -426q2 -239 124 -383q123 -144 347 -148q153 4 251 86t132 189zM549 1044q103 -4 151 -111q48 -106 43 -261h-446q19 193 89 283q69 90 163 89v0z" />
    <glyph glyph-name="emacron" unicode="&#x113;" horiz-adv-x="1036" 
d="M868 1407v51h-639v-51h639zM907 262q-54 -113 -131 -160t-170 -45q-123 1 -215 117q-93 116 -98 328q0 34 2 68q1 33 5 63h640q-1 231 -101 341q-101 110 -282 109q-213 -3 -337 -155q-123 -153 -126 -426q2 -239 124 -383q123 -144 347 -148q153 4 251 86t132 189z
M549 1044q103 -4 151 -111q48 -106 43 -261h-446q19 193 89 283q69 90 163 89v0z" />
    <glyph glyph-name="eogonek" unicode="&#x119;" horiz-adv-x="1036" 
d="M703 -6q5 2 9 4l7 2q88 38 146 104q59 66 83 142l-41 16q-54 -113 -131 -160t-170 -45q-123 1 -215 117q-93 116 -98 328q0 34 2 68q1 33 5 63h640q-1 231 -101 341q-101 110 -282 109q-213 -3 -337 -155q-123 -153 -126 -426q2 -239 124 -383q123 -144 347 -148h7
q-93 -44 -143 -100q-50 -57 -50 -123q1 -61 44 -96q44 -36 118 -37q68 0 126 34q58 33 105 105l-30 27q-21 -29 -53 -48q-33 -19 -72 -20q-42 1 -65 25q-23 25 -23 65q-1 49 38 99q40 49 136 92v0zM549 1044q103 -4 151 -111q48 -106 43 -261h-446q19 193 89 283
q69 90 163 89v0z" />
    <glyph glyph-name="f" unicode="f" horiz-adv-x="680" 
d="M565 1602q-76 0 -139 -27q-63 -28 -104 -76q-58 -66 -82 -167q-24 -102 -23 -279h-164v-41h164v-822q1 -84 -36 -116q-36 -32 -120 -31v-43q38 2 104 5t138 3q97 0 182 -3q84 -3 133 -5v43q-102 -2 -159 34t-58 134v801h220v41h-220v53q-1 172 7 261q7 88 30 128
q19 34 52 55q34 20 81 21q44 -1 69 -13q26 -13 32 -32q-39 -8 -62 -34q-23 -27 -24 -71q1 -52 33 -81t79 -29q49 1 79 30q29 30 30 78q0 37 -17 70q-16 32 -47 57q-32 25 -77 40q-44 16 -101 16v0z" />
    <glyph glyph-name="g" unicode="g" horiz-adv-x="1061" 
d="M303 225q-52 0 -75 17t-23 51q2 47 52 86q49 40 120 76q34 -10 72 -14q38 -5 79 -5q165 -1 270 78q105 78 109 246q-1 116 -54 189q-53 72 -143 105q4 25 10 47q6 21 11 38q25 73 55 100q8 -61 32 -94q23 -34 77 -35q44 1 70 28q27 28 28 70q0 46 -27 76q-28 30 -81 31
q-45 0 -80 -19q-35 -18 -60 -49q-24 -31 -42 -77q-19 -47 -30 -105q-66 18 -145 18q-165 1 -270 -77t-108 -246q1 -114 52 -186q51 -73 138 -106q-144 -66 -201 -129q-57 -64 -55 -130q6 -100 76 -129q69 -30 129 -27h7q-101 -45 -177 -110q-76 -64 -80 -140q6 -94 128 -141
t284 -47q296 9 435 142q139 132 138 278q-3 106 -72 149q-68 43 -168 41h-481zM528 1047q87 3 137 -61q49 -64 50 -226q-1 -162 -50 -226q-50 -64 -137 -61q-86 -3 -136 61q-49 64 -50 226q1 162 50 226q50 64 136 61v0zM506 -350q-109 -1 -201 46t-98 150q0 59 36 115
q35 56 103 92h381q92 0 125 -29t31 -85q-7 -147 -124 -218t-253 -71v0z" />
    <glyph glyph-name="gacute" unicode="&#x1f5;" horiz-adv-x="1061" 
d="M735 1538q14 19 21 37q7 17 7 33q0 17 -8 32q-7 14 -20 25q-19 15 -45 15q-19 0 -39 -11q-20 -10 -39 -35q-42 -58 -87 -150q-44 -92 -136 -239l22 -18q121 125 199 190q79 65 125 121v0zM303 225q-52 0 -75 17t-23 51q2 47 52 86q49 40 120 76q34 -10 72 -14
q38 -5 79 -5q165 -1 270 78q105 78 109 246q-1 116 -54 189q-53 72 -143 105q4 25 10 47q6 21 11 38q25 73 55 100q8 -61 32 -94q23 -34 77 -35q44 1 70 28q27 28 28 70q0 46 -27 76q-28 30 -81 31q-45 0 -80 -19q-35 -18 -60 -49q-24 -31 -42 -77q-19 -47 -30 -105
q-66 18 -145 18q-165 1 -270 -77t-108 -246q1 -114 52 -186q51 -73 138 -106q-144 -66 -201 -129q-57 -64 -55 -130q6 -100 76 -129q69 -30 129 -27h7q-101 -45 -177 -110q-76 -64 -80 -140q6 -94 128 -141t284 -47q296 9 435 142q139 132 138 278q-3 106 -72 149
q-68 43 -168 41h-481zM528 1047q87 3 137 -61q49 -64 50 -226q-1 -162 -50 -226q-50 -64 -137 -61q-86 -3 -136 61q-49 64 -50 226q1 162 50 226q50 64 136 61v0zM506 -350q-109 -1 -201 46t-98 150q0 59 36 115q35 56 103 92h381q92 0 125 -29t31 -85q-7 -147 -124 -218
t-253 -71v0z" />
    <glyph glyph-name="gbreve" unicode="&#x11f;" horiz-adv-x="1034" 
d="M493 1296q142 6 233 98t134 201l-35 19q-40 -73 -121 -133q-80 -60 -211 -64q-131 4 -211 64t-121 133l-34 -19q43 -109 134 -201t232 -98v0zM336 225q-53 -2 -84 11q-30 12 -31 57q1 49 39 84q38 34 103 74q62 -15 133 -15q165 -1 270 78q105 78 108 246q-1 116 -54 189
q-53 72 -143 105q5 25 12 47q6 21 13 38q10 22 20 38q11 16 23 21q6 -46 34 -71t71 -25q53 1 82 33t29 79q-1 49 -31 79q-30 29 -78 30q-50 -2 -87 -30q-37 -29 -60 -66q-20 -29 -37 -69t-27 -92q-67 17 -145 17q-165 1 -270 -77t-109 -246q1 -119 57 -192q55 -74 149 -106
q-122 -67 -173 -128q-52 -61 -50 -127q6 -98 77 -130q70 -31 128 -28h7q-104 -44 -179 -107q-74 -64 -78 -147q5 -85 115 -132t264 -48q288 8 427 136t138 278q-3 111 -70 155q-68 43 -169 41h-424zM496 1047q86 3 136 -61q49 -64 50 -226q-1 -162 -50 -226
q-50 -64 -136 -61q-87 -3 -137 61q-49 64 -50 226q1 162 50 226q50 64 137 61v0zM485 -350q-97 0 -177 46t-85 144q0 64 37 118q37 55 106 91h357q89 0 123 -26q35 -27 33 -80q-8 -142 -130 -217t-264 -76v0z" />
    <glyph glyph-name="gcircumflex" unicode="&#x11d;" horiz-adv-x="1034" 
d="M455 1466q44 -39 108 -77q64 -39 133 -66l21 29q-69 50 -124 127q-54 77 -79 163h-37q-43 -105 -132 -198q-90 -94 -210 -154l17 -28q87 39 168 94q81 54 135 110v0zM336 225q-53 -2 -84 11q-30 12 -31 57q1 49 39 84q38 34 103 74q62 -15 133 -15q165 -1 270 78
q105 78 108 246q-1 116 -54 189q-53 72 -143 105q5 25 12 47q6 21 13 38q10 22 20 38q11 16 23 21q6 -46 34 -71t71 -25q53 1 82 33t29 79q-1 49 -31 79q-30 29 -78 30q-50 -2 -87 -30q-37 -29 -60 -66q-20 -29 -37 -69t-27 -92q-67 17 -145 17q-165 1 -270 -77t-109 -246
q1 -119 57 -192q55 -74 149 -106q-122 -67 -173 -128q-52 -61 -50 -127q6 -98 77 -130q70 -31 128 -28h7q-104 -44 -179 -107q-74 -64 -78 -147q5 -85 115 -132t264 -48q288 8 427 136t138 278q-3 111 -70 155q-68 43 -169 41h-424zM496 1047q86 3 136 -61q49 -64 50 -226
q-1 -162 -50 -226q-50 -64 -136 -61q-87 -3 -137 61q-49 64 -50 226q1 162 50 226q50 64 137 61v0zM485 -350q-97 0 -177 46t-85 144q0 64 37 118q37 55 106 91h357q89 0 123 -26q35 -27 33 -80q-8 -142 -130 -217t-264 -76v0z" />
    <glyph glyph-name="gcommaaccent" unicode="&#x123;" horiz-adv-x="1034" 
d="M504 1319q49 1 82 31q32 31 33 78q-1 54 -31 82t-76 28q-26 0 -48 -9t-38 -23q1 49 39 82q39 33 88 47l-14 37q-96 -35 -133 -86q-37 -50 -35 -123q1 -61 37 -102q35 -40 96 -42v0zM336 225q-53 -2 -84 11q-30 12 -31 57q1 49 39 84q38 34 103 74q62 -15 133 -15
q165 -1 270 78q105 78 108 246q-1 116 -54 189q-53 72 -143 105q5 25 12 47q6 21 13 38q10 22 20 38q11 16 23 21q6 -46 34 -71t71 -25q53 1 82 33t29 79q-1 49 -31 79q-30 29 -78 30q-50 -2 -87 -30q-37 -29 -60 -66q-20 -29 -37 -69t-27 -92q-67 17 -145 17
q-165 1 -270 -77t-109 -246q1 -119 57 -192q55 -74 149 -106q-122 -67 -173 -128q-52 -61 -50 -127q6 -98 77 -130q70 -31 128 -28h7q-104 -44 -179 -107q-74 -64 -78 -147q5 -85 115 -132t264 -48q288 8 427 136t138 278q-3 111 -70 155q-68 43 -169 41h-424zM496 1047
q86 3 136 -61q49 -64 50 -226q-1 -162 -50 -226q-50 -64 -136 -61q-87 -3 -137 61q-49 64 -50 226q1 162 50 226q50 64 137 61v0zM485 -350q-97 0 -177 46t-85 144q0 64 37 118q37 55 106 91h357q89 0 123 -26q35 -27 33 -80q-8 -142 -130 -217t-264 -76v0z" />
    <glyph glyph-name="gdotaccent" unicode="&#x121;" horiz-adv-x="1034" 
d="M496 1305q55 1 92 39q37 37 39 92q-2 55 -39 92t-92 39q-55 -2 -92 -39q-38 -37 -39 -92q1 -55 39 -92q37 -38 92 -39v0zM336 225q-53 -2 -84 11q-30 12 -31 57q1 49 39 84q38 34 103 74q62 -15 133 -15q165 -1 270 78q105 78 108 246q-1 116 -54 189q-53 72 -143 105
q5 25 12 47q6 21 13 38q10 22 20 38q11 16 23 21q6 -46 34 -71t71 -25q53 1 82 33t29 79q-1 49 -31 79q-30 29 -78 30q-50 -2 -87 -30q-37 -29 -60 -66q-20 -29 -37 -69t-27 -92q-67 17 -145 17q-165 1 -270 -77t-109 -246q1 -119 57 -192q55 -74 149 -106
q-122 -67 -173 -128q-52 -61 -50 -127q6 -98 77 -130q70 -31 128 -28h7q-104 -44 -179 -107q-74 -64 -78 -147q5 -85 115 -132t264 -48q288 8 427 136t138 278q-3 111 -70 155q-68 43 -169 41h-424zM496 1047q86 3 136 -61q49 -64 50 -226q-1 -162 -50 -226
q-50 -64 -136 -61q-87 -3 -137 61q-49 64 -50 226q1 162 50 226q50 64 137 61v0zM485 -350q-97 0 -177 46t-85 144q0 64 37 118q37 55 106 91h357q89 0 123 -26q35 -27 33 -80q-8 -142 -130 -217t-264 -76v0z" />
    <glyph glyph-name="h" unicode="h" horiz-adv-x="1204" 
d="M381 1604q-45 -16 -99 -22q-54 -7 -114 -7q-62 0 -127 6v-43q88 0 123 -44q34 -44 33 -136v-1168q1 -84 -36 -116q-36 -32 -120 -31v-43q38 2 107 5t139 3q69 0 132 -3t97 -5v43q-73 -1 -104 31q-32 32 -31 116v457q2 166 81 267q78 101 206 104q107 -3 138 -70
q31 -68 28 -166v-592q1 -84 -31 -116t-105 -31v-43q34 2 97 5q64 3 133 3q70 0 139 -3t107 -5v43q-84 -1 -120 31q-37 32 -36 116v547q0 103 -17 166t-55 103q-35 37 -87 57t-130 20q-106 2 -199 -53q-93 -56 -149 -192v766z" />
    <glyph glyph-name="hbar" unicode="&#x127;" horiz-adv-x="1204" 
d="M1018 737q0 103 -17 166t-55 103q-35 37 -87 57t-130 20q-106 2 -199 -53q-93 -56 -149 -192v407h364v41h-364v318q-45 -16 -99 -22q-54 -7 -114 -7q-62 0 -127 6v-43q88 0 123 -44q34 -44 33 -136v-72h-177v-41h177v-1055q1 -84 -36 -116q-36 -32 -120 -31v-43
q38 2 107 5t139 3q69 0 132 -3t97 -5v43q-73 -1 -104 31q-32 32 -31 116v457q2 166 81 267q78 101 206 104q107 -3 138 -70q31 -68 28 -166v-592q1 -84 -31 -116t-105 -31v-43q34 2 97 5q64 3 133 3q70 0 139 -3t107 -5v43q-84 -1 -120 31q-37 32 -36 116v547z" />
    <glyph glyph-name="hcircumflex" unicode="&#x125;" horiz-adv-x="1204" 
d="M559 2007q-49 -79 -149 -151q-99 -72 -234 -119l10 -29q101 27 195 66q94 38 155 77q73 -39 190 -77q116 -39 242 -66l11 29q-135 47 -235 119q-99 72 -148 151h-37zM381 1604q-45 -16 -99 -22q-54 -7 -114 -7q-62 0 -127 6v-43q88 0 123 -44q34 -44 33 -136v-1168
q1 -84 -36 -116q-36 -32 -120 -31v-43q38 2 107 5t139 3q69 0 132 -3t97 -5v43q-73 -1 -104 31q-32 32 -31 116v457q2 166 81 267q78 101 206 104q107 -3 138 -70q31 -68 28 -166v-592q1 -84 -31 -116t-105 -31v-43q34 2 97 5q64 3 133 3q70 0 139 -3t107 -5v43
q-84 -1 -120 31q-37 32 -36 116v547q0 103 -17 166t-55 103q-35 37 -87 57t-130 20q-106 2 -199 -53q-93 -56 -149 -192v766z" />
    <glyph glyph-name="i" unicode="i" horiz-adv-x="600" 
d="M293 1567q-55 -2 -92 -39q-38 -37 -39 -92q1 -55 39 -92q37 -38 92 -39q55 1 92 39q37 37 39 92q-2 55 -39 92t-92 39v0zM399 1077q-45 -15 -99 -21q-54 -7 -114 -7q-62 0 -127 6v-43q88 0 123 -44q34 -45 33 -137v-641q1 -84 -36 -116q-36 -32 -120 -31v-43q38 2 106 5
q69 3 142 3t142 -3q68 -3 106 -5v43q-84 -1 -120 31q-37 32 -36 116v887z" />
    <glyph glyph-name="dotlessi" unicode="&#x131;" horiz-adv-x="600" 
d="M399 1077q-45 -15 -99 -21q-54 -7 -114 -7q-62 0 -127 6v-43q88 0 123 -44q34 -45 33 -137v-641q1 -84 -36 -116q-36 -32 -120 -31v-43q38 2 106 5q69 3 142 3t142 -3q68 -3 106 -5v43q-84 -1 -120 31q-37 32 -36 116v887z" />
    <glyph glyph-name="iacute" unicode="&#xed;" horiz-adv-x="600" 
d="M508 1665q-19 15 -45 15q-19 0 -39 -11q-20 -10 -39 -35q-42 -58 -87 -150q-44 -92 -136 -239l22 -18q121 125 199 190q79 65 125 121q14 19 21 37q7 17 7 33q0 17 -8 32q-7 14 -20 25v0zM399 1077q-45 -15 -99 -21q-54 -7 -114 -7q-62 0 -127 6v-43q88 0 123 -44
q34 -45 33 -137v-641q1 -84 -36 -116q-36 -32 -120 -31v-43q38 2 106 5q69 3 142 3t142 -3q68 -3 106 -5v43q-84 -1 -120 31q-37 32 -36 116v887z" />
    <glyph glyph-name="ibreve" unicode="&#x12d;" horiz-adv-x="600" 
d="M619 1614q-40 -73 -121 -133q-80 -60 -211 -64q-131 4 -211 64t-121 133l-34 -19q43 -109 134 -201t232 -98q142 6 233 98t134 201zM399 1077q-45 -15 -99 -21q-54 -7 -114 -7q-62 0 -127 6v-43q88 0 123 -44q34 -45 33 -137v-641q1 -84 -36 -116q-36 -32 -120 -31v-43
q38 2 106 5q69 3 142 3t142 -3q68 -3 106 -5v43q-84 -1 -120 31q-37 32 -36 116v887z" />
    <glyph glyph-name="icircumflex" unicode="&#xee;" horiz-adv-x="600" 
d="M270 1642q-43 -105 -132 -198q-90 -94 -210 -154l17 -28q87 39 168 94q81 54 135 110q67 -56 169 -110q103 -55 216 -94l16 28q-120 60 -210 154q-89 93 -132 198h-37zM399 1077q-45 -15 -99 -21q-54 -7 -114 -7q-62 0 -127 6v-43q88 0 123 -44q34 -45 33 -137v-641
q1 -84 -36 -116q-36 -32 -120 -31v-43q38 2 106 5q69 3 142 3t142 -3q68 -3 106 -5v43q-84 -1 -120 31q-37 32 -36 116v887z" />
    <glyph glyph-name="idieresis" unicode="&#xef;" horiz-adv-x="600" 
d="M74 1522q-50 -2 -84 -36t-35 -83q1 -51 35 -84q34 -34 84 -35q49 1 84 35q34 33 35 84q-1 49 -35 83q-35 34 -84 36v0zM508 1522q-50 -2 -83 -36q-34 -34 -35 -83q1 -51 35 -84q33 -34 83 -35q49 1 84 35q34 33 35 84q-1 49 -35 83q-35 34 -84 36v0zM399 1077
q-45 -15 -99 -21q-54 -7 -114 -7q-62 0 -127 6v-43q88 0 123 -44q34 -45 33 -137v-641q1 -84 -36 -116q-36 -32 -120 -31v-43q38 2 106 5q69 3 142 3t142 -3q68 -3 106 -5v43q-84 -1 -120 31q-37 32 -36 116v887z" />
    <glyph glyph-name="glyph181" horiz-adv-x="600" 
d="M289 1567q-55 -2 -92 -39q-38 -37 -39 -92q1 -55 39 -92q37 -38 92 -39q55 1 92 39q37 37 39 92q-2 55 -39 92t-92 39v0zM399 1077q-45 -15 -99 -21q-54 -7 -114 -7q-62 0 -127 6v-43q88 0 123 -44q34 -45 33 -137v-641q1 -84 -36 -116q-36 -32 -120 -31v-43q38 2 106 5
q69 3 142 3t142 -3q68 -3 106 -5v43q-84 -1 -120 31q-37 32 -36 116v887z" />
    <glyph glyph-name="igrave" unicode="&#xec;" horiz-adv-x="600" 
d="M37 1665q-13 -11 -20 -25q-8 -15 -8 -32q0 -16 7 -33q7 -18 21 -37q46 -56 124 -121t199 -190l23 18q-92 147 -136 239q-45 92 -87 150q-19 25 -39 35q-20 11 -40 11q-24 0 -44 -15v0zM399 1077q-45 -15 -99 -21q-54 -7 -114 -7q-62 0 -127 6v-43q88 0 123 -44
q34 -45 33 -137v-641q1 -84 -36 -116q-36 -32 -120 -31v-43q38 2 106 5q69 3 142 3t142 -3q68 -3 106 -5v43q-84 -1 -120 31q-37 32 -36 116v887z" />
    <glyph glyph-name="ij" unicode="&#x133;" horiz-adv-x="1151" 
d="M252 1567q-55 -2 -92 -39q-38 -37 -39 -92q1 -55 39 -92q37 -38 92 -39q55 1 92 39q37 37 39 92q-2 55 -39 92t-92 39v0zM875 1567q-55 -2 -92 -39q-38 -37 -39 -92q1 -55 39 -92q37 -38 92 -39q55 1 92 39q37 37 39 92q-2 55 -39 92t-92 39v0zM989 1077q-45 -15 -99 -21
q-54 -7 -114 -7q-62 0 -127 6v-43q88 0 123 -44q34 -45 33 -137v-423q-1 -160 -75 -264q-73 -103 -202 -107q-106 3 -133 70q-26 67 -22 165v805q-45 -15 -99 -21q-54 -7 -114 -7q-62 0 -127 6v-43q88 0 122 -44q34 -45 33 -137v-514q-1 -96 15 -162q15 -65 53 -106
q35 -37 88 -57q53 -21 125 -21q128 1 213 70q86 69 123 190v-325q1 -138 -37 -199q-38 -62 -125 -61h-16q-9 1 -19 2q37 15 53 38q17 23 17 54q-1 43 -27 66q-27 24 -69 24q-48 -1 -74 -28q-27 -27 -27 -72q0 -54 42 -84q41 -31 124 -31q207 8 277 185q70 178 65 436v841z
" />
    <glyph glyph-name="imacron" unicode="&#x12b;" horiz-adv-x="600" 
d="M575 1407v51h-598v-51h598zM399 1077q-45 -15 -99 -21q-54 -7 -114 -7q-62 0 -127 6v-43q88 0 123 -44q34 -45 33 -137v-641q1 -84 -36 -116q-36 -32 -120 -31v-43q38 2 106 5q69 3 142 3t142 -3q68 -3 106 -5v43q-84 -1 -120 31q-37 32 -36 116v887z" />
    <glyph glyph-name="iogonek" unicode="&#x12f;" horiz-adv-x="600" 
d="M289 1305q55 1 92 39q37 37 39 92q-2 55 -39 92t-92 39q-55 -2 -92 -39q-38 -37 -39 -92q1 -55 39 -92q37 -38 92 -39v0zM547 -219q-21 -29 -53 -48q-33 -19 -72 -20q-42 1 -65 25q-23 25 -23 65q-1 50 39 100q41 50 139 93q6 2 14 5l29 -1v43q-84 -1 -120 31
q-37 32 -36 116v887q-45 -15 -99 -21q-54 -7 -114 -7q-62 0 -127 6v-43q88 0 123 -44q34 -45 33 -137v-641q1 -84 -36 -116q-36 -32 -120 -31v-43q38 2 106 5q69 3 142 3q39 0 79 -1t76 -3q-134 -45 -205 -110q-72 -66 -73 -146q1 -61 44 -96q44 -36 118 -37q68 0 126 34
q58 33 105 105z" />
    <glyph glyph-name="itilde" unicode="&#x129;" horiz-adv-x="600" 
d="M138 1573q-80 1 -145 -49t-99 -162l29 -14q35 57 75 84q39 26 83 26q83 -9 144 -68q60 -60 167 -69q78 -1 143 49q65 49 99 162l-29 14q-35 -58 -75 -83q-39 -26 -83 -25q-84 8 -144 68q-60 59 -165 67v0zM399 1077q-45 -15 -99 -21q-54 -7 -114 -7q-62 0 -127 6v-43
q88 0 123 -44q34 -45 33 -137v-641q1 -84 -36 -116q-36 -32 -120 -31v-43q38 2 106 5q69 3 142 3t142 -3q68 -3 106 -5v43q-84 -1 -120 31q-37 32 -36 116v887z" />
    <glyph glyph-name="j" unicode="j" horiz-adv-x="547" 
d="M272 1556q-55 -1 -92 -38q-37 -38 -39 -93q2 -55 39 -92t92 -39q55 2 93 39q37 37 38 92q-1 55 -38 93q-38 37 -93 38v0zM385 1077q-45 -15 -99 -21q-54 -7 -114 -7q-62 0 -127 6v-43q88 0 123 -44q34 -45 33 -137v-964q0 -63 -13 -105q-13 -43 -34 -69q-23 -25 -52 -36
t-63 -11h-17l-18 2q38 14 58 39t20 59q-1 52 -30 76q-30 24 -77 24q-48 -1 -77 -29q-28 -29 -29 -77q0 -31 12 -54q11 -24 33 -40t52 -23q29 -8 63 -8q66 0 131 31q66 31 116 94q68 90 89 221q22 131 20 275v841z" />
    <glyph glyph-name="dotlessj" unicode="&#x237;" horiz-adv-x="547" 
d="M385 1077q-45 -15 -99 -21q-54 -7 -114 -7q-62 0 -127 6v-43q88 0 123 -44q34 -45 33 -137v-964q0 -63 -13 -105q-13 -43 -34 -69q-23 -25 -52 -36t-63 -11h-17l-18 2q38 14 58 39t20 59q-1 52 -30 76q-30 24 -77 24q-48 -1 -77 -29q-28 -29 -29 -77q0 -31 12 -54
q11 -24 33 -40t52 -23q29 -8 63 -8q66 0 131 31q66 31 116 94q68 90 89 221q22 131 20 275v841z" />
    <glyph glyph-name="jcircumflex" unicode="&#x135;" horiz-adv-x="547" 
d="M255 1642q-43 -105 -132 -198q-90 -94 -210 -154l17 -28q87 39 168 94q81 54 135 110q67 -56 169 -110q103 -55 216 -94l16 28q-120 60 -210 154q-89 93 -132 198h-37zM385 1077q-45 -15 -99 -21q-54 -7 -114 -7q-62 0 -127 6v-43q88 0 123 -44q34 -45 33 -137v-964
q0 -63 -13 -105q-13 -43 -34 -69q-23 -25 -52 -36t-63 -11h-17l-18 2q38 14 58 39t20 59q-1 52 -30 76q-30 24 -77 24q-48 -1 -77 -29q-28 -29 -29 -77q0 -31 12 -54q11 -24 33 -40t52 -23q29 -8 63 -8q66 0 131 31q66 31 116 94q68 90 89 221q22 131 20 275v841z" />
    <glyph glyph-name="k" unicode="k" horiz-adv-x="1126" 
d="M599 656l249 262q43 44 88 68q46 24 96 28v41q-32 -3 -79 -5q-47 -3 -99 -3q-46 0 -111 3q-64 2 -120 5v-41q66 0 108 -16q42 -17 43 -54q0 -21 -15 -49q-16 -28 -50 -64l-152 -157q-34 -36 -75 -57q-41 -20 -101 -28v1017q-45 -16 -99 -22q-54 -7 -114 -7q-62 0 -127 6
v-43q88 0 123 -44q34 -44 33 -136v-1170q1 -84 -36 -116q-36 -32 -120 -31v-43q38 2 106 5q69 3 142 3q67 0 130 -3t97 -5v43q-73 -1 -104 31q-32 32 -31 116v357q52 -1 85 -20t69 -70l235 -344q12 -17 12 -31q0 -18 -17 -28q-16 -11 -46 -11v-43q34 2 97 5t130 3
q48 0 95 -3q46 -3 71 -5v43q-45 6 -77 33q-32 26 -66 74z" />
    <glyph glyph-name="kcommaaccent" unicode="&#x137;" horiz-adv-x="1126" 
d="M599 656l249 262q43 44 88 68q46 24 96 28v41q-32 -3 -79 -5q-47 -3 -99 -3q-46 0 -111 3q-64 2 -120 5v-41q66 0 108 -16q42 -17 43 -54q0 -21 -15 -49q-16 -28 -50 -64l-152 -157q-34 -36 -75 -57q-41 -20 -101 -28v1017q-45 -16 -99 -22q-54 -7 -114 -7q-62 0 -127 6
v-43q88 0 123 -44q34 -44 33 -136v-1170q1 -84 -36 -116q-36 -32 -120 -31v-43q38 2 106 5q69 3 142 3q67 0 130 -3t97 -5v43q-73 -1 -104 31q-32 32 -31 116v357q52 -1 85 -20t69 -70l235 -344q12 -17 12 -31q0 -18 -17 -28q-16 -11 -46 -11v-43q34 2 97 5t130 3
q48 0 95 -3q46 -3 71 -5v43q-45 6 -77 33q-32 26 -66 74zM561 -141q-49 -1 -81 -31q-33 -30 -34 -78q1 -54 31 -82t76 -28q26 0 48 9t38 23q-1 -49 -39 -82q-39 -33 -88 -47l14 -37q96 35 133 86q37 50 35 123q-1 62 -36 102q-36 41 -97 42v0z" />
    <glyph glyph-name="kgreenlandic" unicode="&#x138;" horiz-adv-x="1153" 
d="M588 590l299 328q51 56 93 75q42 18 91 21v41q-26 -3 -59 -4q-34 -2 -78 -2q-46 0 -101 2q-55 1 -110 4v-41q53 0 81 -15q28 -14 28 -40q0 -12 -7 -27q-7 -14 -22 -31l-244 -268q-34 -37 -69 -59q-36 -22 -91 -32v535q-45 -15 -99 -21q-54 -7 -114 -7q-62 0 -127 6v-43
q88 0 123 -44q34 -45 33 -137v-641q1 -84 -36 -116q-36 -32 -120 -31v-43q38 2 106 5q69 3 142 3q67 0 130 -3q64 -3 98 -5v43q-73 -1 -105 31t-31 116v310q29 -3 56 -24q28 -21 59 -60l274 -303q7 -8 11 -15q3 -8 3 -15q0 -18 -17 -29q-18 -11 -48 -11v-43q34 2 98 5
q63 3 130 3q48 0 94 -3q47 -3 71 -5v43q-35 7 -72 39q-36 32 -73 74z" />
    <glyph glyph-name="l" unicode="l" horiz-adv-x="586" 
d="M385 1606q-45 -16 -99 -22q-54 -7 -114 -7q-62 0 -127 6v-43q88 0 123 -44q34 -44 33 -136v-1170q1 -84 -36 -116q-36 -32 -120 -31v-43q38 2 106 5q69 3 142 3t142 -3q68 -3 106 -5v43q-84 -1 -120 31q-37 32 -36 116v1416z" />
    <glyph glyph-name="lacute" unicode="&#x13a;" horiz-adv-x="586" 
d="M512 2027q-60 -41 -134 -111q-73 -70 -210 -177l14 -27q156 77 252 111q96 35 160 71q28 19 41 40t13 41t-11 38q-11 16 -27 25t-36 9q-14 0 -30 -5q-15 -5 -32 -15v0zM385 1606q-45 -16 -99 -22q-54 -7 -114 -7q-62 0 -127 6v-43q88 0 123 -44q34 -44 33 -136v-1170
q1 -84 -36 -116q-36 -32 -120 -31v-43q38 2 106 5q69 3 142 3t142 -3q68 -3 106 -5v43q-84 -1 -120 31q-37 32 -36 116v1416z" />
    <glyph glyph-name="lcaron" unicode="&#x13e;" horiz-adv-x="586" 
d="M385 1606q-45 -16 -99 -22q-54 -7 -114 -7q-62 0 -127 6v-43q88 0 123 -44q34 -44 33 -136v-1170q1 -84 -36 -116q-36 -32 -120 -31v-43q38 2 106 5q69 3 142 3t142 -3q68 -3 106 -5v43q-84 -1 -120 31q-37 32 -36 116v1416zM667 1606q-24 -10 -53 -17t-69 -7
q-15 0 -33 1v-43q25 0 33 -21q9 -21 8 -61q0 -25 -8 -93q-9 -67 -33 -204l28 -8q64 131 101 221q36 89 37 148q0 20 -3 45q-3 26 -8 39v0z" />
    <glyph glyph-name="lcommaaccent" unicode="&#x13c;" horiz-adv-x="586" 
d="M385 1606q-45 -16 -99 -22q-54 -7 -114 -7q-62 0 -127 6v-43q88 0 123 -44q34 -44 33 -136v-1170q1 -84 -36 -116q-36 -32 -120 -31v-43q38 2 106 5q69 3 142 3t142 -3q68 -3 106 -5v43q-84 -1 -120 31q-37 32 -36 116v1416zM279 -141q-49 -1 -81 -31q-33 -30 -34 -78
q1 -54 31 -82t76 -28q26 0 48 9t38 23q-1 -49 -39 -82q-39 -33 -88 -47l14 -37q96 35 133 86q37 50 35 123q-1 62 -36 102q-36 41 -97 42v0z" />
    <glyph glyph-name="ldot" unicode="&#x140;" horiz-adv-x="872" 
d="M385 1606q-45 -16 -99 -22q-54 -7 -114 -7q-62 0 -127 6v-43q88 0 123 -44q34 -44 33 -136v-1170q1 -84 -36 -116q-36 -32 -120 -31v-43q38 2 106 5q69 3 142 3t142 -3q68 -3 106 -5v43q-84 -1 -120 31q-37 32 -36 116v1416zM729 735q-55 -1 -92 -38q-38 -38 -39 -93
q1 -55 39 -92q37 -37 92 -39q55 2 93 39q37 37 38 92q-1 55 -38 93q-38 37 -93 38v0z" />
    <glyph glyph-name="lslash" unicode="&#x142;" horiz-adv-x="586" 
d="M385 820l231 202v61l-231 -201v724q-45 -16 -99 -22q-54 -7 -114 -7q-62 0 -127 6v-43q88 0 123 -44q34 -44 33 -136v-618l-232 -201v-62l232 201v-490q1 -84 -36 -116q-36 -32 -120 -31v-43q38 2 106 5q69 3 142 3t142 -3q68 -3 106 -5v43q-84 -1 -120 31
q-37 32 -36 116v630z" />
    <glyph glyph-name="m" unicode="m" horiz-adv-x="1819" 
d="M1632 737q1 96 -14 162t-53 107q-35 37 -88 57t-125 20q-100 2 -192 -51q-92 -54 -149 -191q-6 55 -21 95q-15 41 -42 70q-35 37 -88 57t-125 20q-100 1 -191 -57q-90 -58 -145 -190v241q-45 -15 -99 -21q-54 -7 -114 -7q-62 0 -127 6v-43q88 0 123 -44q34 -45 33 -137
v-641q1 -84 -36 -116q-36 -32 -120 -31v-43q38 2 107 5t139 3q69 0 133 -3q63 -3 97 -5v43q-73 -1 -105 31t-31 116v455q2 160 79 265q76 104 198 108q106 -3 133 -70q26 -68 22 -166v-592q1 -84 -30 -116q-32 -32 -105 -31v-43q34 2 97 5q64 3 133 3q70 0 139 -3
q68 -3 106 -5v43q-83 -1 -119 31q-37 32 -36 116v457q2 160 78 264q76 103 198 107q107 -3 134 -70q26 -68 22 -166v-592q1 -84 -31 -116q-31 -32 -104 -31v-43q34 2 97 5t132 3q70 0 139 -3t107 -5v43q-84 -1 -120 31q-37 32 -36 116v547z" />
    <glyph glyph-name="n" unicode="n" horiz-adv-x="1223" 
d="M748 1083q-107 2 -200 -54q-93 -57 -149 -193v241q-45 -15 -99 -21q-54 -7 -114 -7q-62 0 -127 6v-43q88 0 123 -44q34 -45 33 -137v-641q1 -84 -36 -116q-36 -32 -120 -31v-43q38 2 107 5t139 3q69 0 133 -3q63 -3 97 -5v43q-73 -1 -105 31t-31 116v455q2 160 79 265
q77 104 208 108q108 -3 139 -70q31 -68 27 -166v-592q1 -84 -31 -116q-31 -32 -104 -31v-43q34 2 97 5t132 3q70 0 139 -3t107 -5v43q-84 -1 -120 31q-37 32 -36 116v547q0 103 -16 166q-17 63 -55 103q-35 37 -87 57q-53 20 -130 20v0z" />
    <glyph glyph-name="nacute" unicode="&#x144;" horiz-adv-x="1223" 
d="M846 1665q-19 15 -45 15q-19 0 -39 -11q-20 -10 -39 -35q-42 -58 -87 -150q-44 -92 -136 -239l22 -18q121 125 199 190q79 65 125 121q14 19 21 37q7 17 7 33q0 17 -8 32q-7 14 -20 25v0zM748 1083q-107 2 -200 -54q-93 -57 -149 -193v241q-45 -15 -99 -21
q-54 -7 -114 -7q-62 0 -127 6v-43q88 0 123 -44q34 -45 33 -137v-641q1 -84 -36 -116q-36 -32 -120 -31v-43q38 2 107 5t139 3q69 0 133 -3q63 -3 97 -5v43q-73 -1 -105 31t-31 116v455q2 160 79 265q77 104 208 108q108 -3 139 -70q31 -68 27 -166v-592q1 -84 -31 -116
q-31 -32 -104 -31v-43q34 2 97 5t132 3q70 0 139 -3t107 -5v43q-84 -1 -120 31q-37 32 -36 116v547q0 103 -16 166q-17 63 -55 103q-35 37 -87 57q-53 20 -130 20v0z" />
    <glyph glyph-name="napostrophe" unicode="&#x149;" horiz-adv-x="1223" 
d="M65 1556q-55 -1 -92 -37q-38 -36 -39 -94q1 -62 39 -96q37 -34 92 -35q22 0 41 8q19 7 35 19q3 -9 5 -19q1 -11 1 -24q-2 -62 -46 -117q-45 -56 -110 -84l19 -37q108 52 160 134q51 81 51 182q1 26 -7 63q-7 37 -28 72q-18 30 -48 47q-29 18 -73 18v0zM748 1083
q-107 2 -200 -54q-93 -57 -149 -193v241q-45 -15 -99 -21q-54 -7 -114 -7q-62 0 -127 6v-43q88 0 123 -44q34 -45 33 -137v-641q1 -84 -36 -116q-36 -32 -120 -31v-43q38 2 107 5t139 3q69 0 133 -3q63 -3 97 -5v43q-73 -1 -105 31t-31 116v455q2 160 79 265q77 104 208 108
q108 -3 139 -70q31 -68 27 -166v-592q1 -84 -31 -116q-31 -32 -104 -31v-43q34 2 97 5t132 3q70 0 139 -3t107 -5v43q-84 -1 -120 31q-37 32 -36 116v547q0 103 -16 166q-17 63 -55 103q-35 37 -87 57q-53 20 -130 20v0z" />
    <glyph glyph-name="ncaron" unicode="&#x148;" horiz-adv-x="1223" 
d="M951 1642q-88 -39 -169 -94q-81 -54 -134 -110q-67 56 -170 110q-103 55 -215 94l-17 -28q120 -60 210 -154q89 -93 132 -198h37q43 105 132 198q90 94 210 154zM748 1083q-107 2 -200 -54q-93 -57 -149 -193v241q-45 -15 -99 -21q-54 -7 -114 -7q-62 0 -127 6v-43
q88 0 123 -44q34 -45 33 -137v-641q1 -84 -36 -116q-36 -32 -120 -31v-43q38 2 107 5t139 3q69 0 133 -3q63 -3 97 -5v43q-73 -1 -105 31t-31 116v455q2 160 79 265q77 104 208 108q108 -3 139 -70q31 -68 27 -166v-592q1 -84 -31 -116q-31 -32 -104 -31v-43q34 2 97 5
t132 3q70 0 139 -3t107 -5v43q-84 -1 -120 31q-37 32 -36 116v547q0 103 -16 166q-17 63 -55 103q-35 37 -87 57q-53 20 -130 20v0z" />
    <glyph glyph-name="ncommaaccent" unicode="&#x146;" horiz-adv-x="1223" 
d="M748 1083q-107 2 -200 -54q-93 -57 -149 -193v241q-45 -15 -99 -21q-54 -7 -114 -7q-62 0 -127 6v-43q88 0 123 -44q34 -45 33 -137v-641q1 -84 -36 -116q-36 -32 -120 -31v-43q38 2 107 5t139 3q69 0 133 -3q63 -3 97 -5v43q-73 -1 -105 31t-31 116v455q2 160 79 265
q77 104 208 108q108 -3 139 -70q31 -68 27 -166v-592q1 -84 -31 -116q-31 -32 -104 -31v-43q34 2 97 5t132 3q70 0 139 -3t107 -5v43q-84 -1 -120 31q-37 32 -36 116v547q0 103 -16 166q-17 63 -55 103q-35 37 -87 57q-53 20 -130 20v0zM633 -141q-49 -1 -81 -31
q-33 -30 -34 -78q1 -54 31 -82t76 -28q26 0 48 9t38 23q-1 -49 -39 -82q-39 -33 -88 -47l14 -37q96 35 133 86q37 50 35 123q-1 62 -36 102q-36 41 -97 42v0z" />
    <glyph glyph-name="eng" unicode="&#x14b;" horiz-adv-x="1186" 
d="M748 1081q-107 2 -200 -53q-93 -56 -149 -192v241q-45 -15 -99 -21q-54 -7 -114 -7q-62 0 -127 6v-43q88 0 123 -44q34 -45 33 -137v-641q1 -84 -36 -116q-36 -32 -120 -31v-43q38 2 107 5t139 3q69 0 133 -3q63 -3 97 -5v43q-73 -1 -105 31t-31 116v455q2 160 79 264
q77 103 208 107q108 -3 139 -70q31 -68 27 -166v-913q0 -61 -10 -105q-5 -20 -12 -36q-8 -17 -19 -29q-19 -23 -46 -35q-28 -12 -67 -16q20 22 27 44q6 22 6 38q-1 39 -25 65q-25 26 -67 27q-45 -1 -70 -27q-26 -27 -26 -69q0 -45 33 -76q34 -32 104 -33q66 0 132 31
q65 31 116 94q67 90 89 221q21 131 19 275v499q0 103 -16 166q-17 62 -55 103q-35 37 -87 57q-53 20 -130 20v0z" />
    <glyph glyph-name="ntilde" unicode="&#xf1;" horiz-adv-x="1223" 
d="M476 1573q-80 1 -145 -49t-99 -162l29 -14q35 57 75 84q39 26 83 26q83 -9 144 -68q60 -60 167 -69q78 -1 143 49q65 49 99 162l-29 14q-35 -58 -75 -83q-39 -26 -83 -25q-84 8 -144 68q-60 59 -165 67v0zM748 1083q-107 2 -200 -54q-93 -57 -149 -193v241
q-45 -15 -99 -21q-54 -7 -114 -7q-62 0 -127 6v-43q88 0 123 -44q34 -45 33 -137v-641q1 -84 -36 -116q-36 -32 -120 -31v-43q38 2 107 5t139 3q69 0 133 -3q63 -3 97 -5v43q-73 -1 -105 31t-31 116v455q2 160 79 265q77 104 208 108q108 -3 139 -70q31 -68 27 -166v-592
q1 -84 -31 -116q-31 -32 -104 -31v-43q34 2 97 5t132 3q70 0 139 -3t107 -5v43q-84 -1 -120 31q-37 32 -36 116v547q0 103 -16 166q-17 63 -55 103q-35 37 -87 57q-53 20 -130 20v0z" />
    <glyph glyph-name="o" unicode="o" horiz-adv-x="1122" 
d="M561 1083q-200 2 -330 -131t-135 -426q5 -293 135 -425t330 -130q200 -2 330 130t135 425q-5 293 -135 426t-330 131v0zM561 1042q119 2 192 -120q72 -123 74 -396q-2 -272 -74 -394q-73 -122 -192 -120q-118 -2 -191 120t-75 394q2 273 75 396q73 122 191 120v0z" />
    <glyph glyph-name="oacute" unicode="&#xf3;" horiz-adv-x="1122" 
d="M786 1665q-19 15 -45 15q-19 0 -39 -11q-20 -10 -39 -35q-42 -58 -87 -150q-44 -92 -136 -239l22 -18q121 125 199 190q79 65 125 121q14 19 21 37q7 17 7 33q0 17 -8 32q-7 14 -20 25v0zM561 1083q-200 2 -330 -131t-135 -426q5 -293 135 -425t330 -130q200 -2 330 130
t135 425q-5 293 -135 426t-330 131v0zM561 1042q119 2 192 -120q72 -123 74 -396q-2 -272 -74 -394q-73 -122 -192 -120q-118 -2 -191 120t-75 394q2 273 75 396q73 122 191 120v0z" />
    <glyph glyph-name="obreve" unicode="&#x14f;" horiz-adv-x="1122" 
d="M897 1614q-40 -73 -121 -133q-80 -60 -211 -64q-131 4 -211 64t-121 133l-34 -19q43 -109 134 -201t232 -98q142 6 233 98t134 201zM561 1083q-200 2 -330 -131t-135 -426q5 -293 135 -425t330 -130q200 -2 330 130t135 425q-5 293 -135 426t-330 131v0zM561 1042
q119 2 192 -120q72 -123 74 -396q-2 -272 -74 -394q-73 -122 -192 -120q-118 -2 -191 120t-75 394q2 273 75 396q73 122 191 120v0z" />
    <glyph glyph-name="ocircumflex" unicode="&#xf4;" horiz-adv-x="1122" 
d="M548 1642q-43 -105 -132 -198q-90 -94 -210 -154l17 -28q87 39 168 94q81 54 135 110q67 -56 169 -110q103 -55 216 -94l16 28q-120 60 -210 154q-89 93 -132 198h-37zM561 1083q-200 2 -330 -131t-135 -426q5 -293 135 -425t330 -130q200 -2 330 130t135 425
q-5 293 -135 426t-330 131v0zM561 1042q119 2 192 -120q72 -123 74 -396q-2 -272 -74 -394q-73 -122 -192 -120q-118 -2 -191 120t-75 394q2 273 75 396q73 122 191 120v0z" />
    <glyph glyph-name="odieresis" unicode="&#xf6;" horiz-adv-x="1122" 
d="M352 1522q-50 -2 -84 -36t-35 -83q1 -51 35 -84q34 -34 84 -35q49 1 84 35q34 33 35 84q-1 49 -35 83q-35 34 -84 36v0zM786 1522q-50 -2 -83 -36q-34 -34 -35 -83q1 -51 35 -84q33 -34 83 -35q49 1 84 35q34 33 35 84q-1 49 -35 83q-35 34 -84 36v0zM561 1083
q-200 2 -330 -131t-135 -426q5 -293 135 -425t330 -130q200 -2 330 130t135 425q-5 293 -135 426t-330 131v0zM561 1042q119 2 192 -120q72 -123 74 -396q-2 -272 -74 -394q-73 -122 -192 -120q-118 -2 -191 120t-75 394q2 273 75 396q73 122 191 120v0z" />
    <glyph glyph-name="ograve" unicode="&#xf2;" horiz-adv-x="1122" 
d="M315 1665q-13 -11 -20 -25q-8 -15 -8 -32q0 -16 7 -33q7 -18 21 -37q46 -56 124 -121t199 -190l23 18q-92 147 -136 239q-45 92 -87 150q-19 25 -39 35q-20 11 -40 11q-24 0 -44 -15v0zM561 1083q-200 2 -330 -131t-135 -426q5 -293 135 -425t330 -130q200 -2 330 130
t135 425q-5 293 -135 426t-330 131v0zM561 1042q119 2 192 -120q72 -123 74 -396q-2 -272 -74 -394q-73 -122 -192 -120q-118 -2 -191 120t-75 394q2 273 75 396q73 122 191 120v0z" />
    <glyph glyph-name="ohungarumlaut" unicode="&#x151;" horiz-adv-x="1122" 
d="M642 1665q-20 15 -44 15q-20 0 -40 -11q-20 -10 -39 -35q-42 -58 -87 -150q-44 -92 -136 -239l23 -18q121 125 199 190t124 121q14 19 21 37q7 17 7 33q0 17 -8 32q-7 14 -20 25v0zM1007 1665q-19 15 -45 15q-19 0 -39 -11q-20 -10 -39 -35q-42 -58 -87 -150
q-44 -92 -136 -239l22 -18q121 125 199 190t125 121q14 19 21 37q7 17 7 33q0 17 -8 32q-7 14 -20 25v0zM561 1083q-200 2 -330 -131t-135 -426q5 -293 135 -425t330 -130q200 -2 330 130t135 425q-5 293 -135 426t-330 131v0zM561 1042q119 2 192 -120q72 -123 74 -396
q-2 -272 -74 -394q-73 -122 -192 -120q-118 -2 -191 120t-75 394q2 273 75 396q73 122 191 120v0z" />
    <glyph glyph-name="omacron" unicode="&#x14d;" horiz-adv-x="1122" 
d="M880 1407v51h-639v-51h639zM561 1083q-200 2 -330 -131t-135 -426q5 -293 135 -425t330 -130q200 -2 330 130t135 425q-5 293 -135 426t-330 131v0zM561 1042q119 2 192 -120q72 -123 74 -396q-2 -272 -74 -394q-73 -122 -192 -120q-118 -2 -191 120t-75 394
q2 273 75 396q73 122 191 120v0z" />
    <glyph glyph-name="oslash" unicode="&#xf8;" horiz-adv-x="1120" 
d="M1034 1176l-39 26l-145 -212q-60 48 -133 71q-73 22 -156 22q-200 2 -330 -131t-135 -426q1 -151 38 -258t104 -174l-148 -215l43 -29l143 210q60 -46 132 -67q72 -22 153 -22q200 -2 330 130t135 425q-1 151 -37 258q-37 107 -103 173zM561 1042q65 0 118 -36
q52 -36 88 -112l-431 -683q-20 58 -30 137q-11 78 -11 178q2 273 75 396q73 122 191 120v0zM561 12q-63 0 -115 34q-51 34 -87 107l429 684q19 -58 29 -136t10 -175q-2 -272 -74 -394q-73 -122 -192 -120v0z" />
    <glyph glyph-name="otilde" unicode="&#xf5;" horiz-adv-x="1122" 
d="M416 1573q-80 1 -145 -49t-99 -162l29 -14q35 57 75 84q39 26 83 26q83 -9 144 -68q60 -60 167 -69q78 -1 143 49q65 49 99 162l-29 14q-35 -58 -75 -83q-39 -26 -83 -25q-84 8 -144 68q-60 59 -165 67v0zM561 1083q-200 2 -330 -131t-135 -426q5 -293 135 -425t330 -130
q200 -2 330 130t135 425q-5 293 -135 426t-330 131v0zM561 1042q119 2 192 -120q72 -123 74 -396q-2 -272 -74 -394q-73 -122 -192 -120q-118 -2 -191 120t-75 394q2 273 75 396q73 122 191 120v0z" />
    <glyph glyph-name="oe" unicode="&#x153;" horiz-adv-x="1710" 
d="M1581 262q-51 -113 -123 -160q-71 -47 -158 -45q-123 1 -215 117q-93 116 -98 328q0 34 2 68q1 33 5 63h620q-1 231 -96 341t-267 109q-121 -1 -213 -63q-91 -63 -145 -180q-53 125 -145 184q-91 58 -205 57q-191 2 -315 -130q-125 -132 -130 -425q5 -293 130 -425
q124 -132 315 -130q112 -1 202 56q91 56 145 177q52 -110 146 -171q93 -61 224 -62q145 4 237 86t125 189zM1243 1044q92 -4 135 -111q44 -106 39 -261h-426q19 193 89 283q69 90 163 89v0zM543 12q-110 -2 -177 120t-69 394q2 273 69 395q67 121 177 119q109 2 176 -119
q67 -122 69 -395q-2 -272 -69 -394t-176 -120v0z" />
    <glyph glyph-name="p" unicode="p" horiz-adv-x="1190" 
d="M713 1083q-110 -1 -195 -58t-133 -164v216q-45 -15 -99 -21q-54 -7 -114 -7q-62 0 -127 6v-43q88 0 123 -44q34 -45 33 -137v-1032q1 -72 -31 -100q-31 -28 -104 -27v-43q34 2 94 5q61 4 127 4q91 0 170 -4q78 -3 125 -5v43q-93 -2 -145 30q-51 32 -52 118v262
q35 -49 97 -79q62 -31 143 -32q248 10 359 191q112 181 110 413q-4 248 -110 378q-106 129 -271 130v0zM602 18q-81 1 -135 38q-54 36 -82 94v613q35 130 108 194q73 65 164 65q117 1 178 -116q60 -116 60 -359q3 -224 -61 -374q-65 -149 -232 -155v0z" />
    <glyph glyph-name="thorn" unicode="&#xfe;" horiz-adv-x="1145" 
d="M668 1083q-110 -1 -195 -58t-133 -164v743q-45 -16 -99 -22q-54 -7 -114 -7q-62 0 -127 6v-43q88 0 123 -44q34 -44 33 -136v-1559q1 -72 -31 -100t-105 -27v-43q34 2 95 5q61 4 127 4q90 0 169 -4q79 -3 126 -5v43q-93 -2 -145 30q-51 32 -52 118v262q35 -49 97 -79
q62 -31 143 -32q248 10 359 191q112 181 110 413q-4 248 -110 378q-106 129 -271 130v0zM557 18q-82 1 -135 38q-54 36 -82 94v613q35 130 108 194q73 65 164 65q117 1 178 -116q60 -116 60 -359q3 -224 -61 -374q-65 -149 -232 -155v0z" />
    <glyph glyph-name="q" unicode="q" horiz-adv-x="1153" 
d="M989 954q0 31 3 61q4 30 12 58l-35 14q-37 -38 -73 -76q-36 -39 -73 -77q-44 78 -115 114q-70 36 -173 35q-189 0 -312 -139q-123 -138 -127 -418q4 -280 123 -418q118 -137 299 -137q95 0 170 52t117 150v-353q-1 -86 -52 -118q-52 -32 -145 -30v-43q47 2 125 5
q79 4 170 4q66 0 127 -4q60 -3 94 -5v43q-73 -1 -104 27q-32 28 -31 100v1155zM578 33q-138 0 -210 123t-73 370q1 259 67 385q67 126 189 125q82 0 148 -33q65 -34 106 -104v-629q-29 -118 -91 -177q-62 -60 -136 -60v0z" />
    <glyph glyph-name="r" unicode="r" horiz-adv-x="911" 
d="M696 1083q-108 -5 -186 -86q-78 -82 -111 -176v256q-45 -15 -99 -21q-54 -7 -114 -7q-62 0 -127 6v-43q88 0 123 -44q34 -45 33 -137v-641q1 -84 -36 -116q-36 -32 -120 -31v-43q37 2 103 5q67 3 139 3q97 0 182 -3q84 -3 133 -5v43q-102 -2 -159 34t-58 134v434
q2 124 78 250q76 125 207 135q14 0 25 -5q10 -5 18 -15q-29 -17 -49 -45t-21 -66q1 -51 33 -78q32 -28 76 -28q55 2 86 38q30 37 31 91q-1 68 -52 114q-50 45 -135 47v0z" />
    <glyph glyph-name="racute" unicode="&#x155;" horiz-adv-x="911" 
d="M702 1665q-19 15 -45 15q-19 0 -39 -11q-20 -10 -39 -35q-42 -58 -87 -150q-44 -92 -136 -239l22 -18q121 125 199 190q79 65 125 121q14 19 21 37q7 17 7 33q0 17 -8 32q-7 14 -20 25v0zM696 1083q-108 -5 -186 -86q-78 -82 -111 -176v256q-45 -15 -99 -21
q-54 -7 -114 -7q-62 0 -127 6v-43q88 0 123 -44q34 -45 33 -137v-641q1 -84 -36 -116q-36 -32 -120 -31v-43q37 2 103 5q67 3 139 3q97 0 182 -3q84 -3 133 -5v43q-102 -2 -159 34t-58 134v434q2 124 78 250q76 125 207 135q14 0 25 -5q10 -5 18 -15q-29 -17 -49 -45
t-21 -66q1 -51 33 -78q32 -28 76 -28q55 2 86 38q30 37 31 91q-1 68 -52 114q-50 45 -135 47v0z" />
    <glyph glyph-name="rcaron" unicode="&#x159;" horiz-adv-x="911" 
d="M807 1642q-88 -39 -169 -94q-81 -54 -134 -110q-67 56 -170 110q-103 55 -215 94l-17 -28q120 -60 210 -154q89 -93 132 -198h37q43 105 132 198q90 94 210 154zM696 1083q-108 -5 -186 -86q-78 -82 -111 -176v256q-45 -15 -99 -21q-54 -7 -114 -7q-62 0 -127 6v-43
q88 0 123 -44q34 -45 33 -137v-641q1 -84 -36 -116q-36 -32 -120 -31v-43q37 2 103 5q67 3 139 3q97 0 182 -3q84 -3 133 -5v43q-102 -2 -159 34t-58 134v434q2 124 78 250q76 125 207 135q14 0 25 -5q10 -5 18 -15q-29 -17 -49 -45t-21 -66q1 -51 33 -78q32 -28 76 -28
q55 2 86 38q30 37 31 91q-1 68 -52 114q-50 45 -135 47v0z" />
    <glyph glyph-name="rcommaaccent" unicode="&#x157;" horiz-adv-x="911" 
d="M696 1083q-108 -5 -186 -86q-78 -82 -111 -176v256q-45 -15 -99 -21q-54 -7 -114 -7q-62 0 -127 6v-43q88 0 123 -44q34 -45 33 -137v-641q1 -84 -36 -116q-36 -32 -120 -31v-43q37 2 103 5q67 3 139 3q97 0 182 -3q84 -3 133 -5v43q-102 -2 -159 34t-58 134v434
q2 124 78 250q76 125 207 135q14 0 25 -5q10 -5 18 -15q-29 -17 -49 -45t-21 -66q1 -51 33 -78q32 -28 76 -28q55 2 86 38q30 37 31 91q-1 68 -52 114q-50 45 -135 47v0zM332 -141q-49 -1 -81 -31q-33 -30 -34 -78q1 -54 31 -82t76 -28q26 0 48 9t38 23q-1 -49 -39 -82
q-39 -33 -88 -47l14 -37q96 35 133 86q37 50 35 123q-1 62 -36 102q-36 41 -97 42v0z" />
    <glyph glyph-name="s" unicode="s" horiz-adv-x="913" 
d="M424 1083q-125 1 -212 -64q-87 -64 -91 -200q4 -124 85 -200q82 -77 197 -144q102 -61 166 -121t66 -147q-4 -108 -60 -152q-57 -44 -122 -43q-150 2 -209 106q-60 103 -76 277h-47q0 -153 -2 -249t-6 -160h47q6 38 17 58q11 19 25 19q5 0 10 -2q4 -2 9 -6q41 -33 84 -55
q74 -29 162 -29q144 0 245 73t105 214q-3 123 -82 205q-79 81 -198 153q-108 65 -184 124q-76 58 -79 147q2 77 48 117q47 40 120 40q137 -5 200 -98q63 -94 79 -213h47q0 130 2 212t6 136h-47q-5 -46 -17 -68q-11 -22 -29 -22q-15 0 -36 17q-28 24 -85 49q-57 24 -138 26v0
z" />
    <glyph glyph-name="sacute" unicode="&#x15b;" horiz-adv-x="913" 
d="M686 1665q-19 15 -45 15q-19 0 -39 -11q-20 -10 -39 -35q-42 -58 -87 -150q-44 -92 -136 -239l22 -18q121 125 199 190q79 65 125 121q14 19 21 37q7 17 7 33q0 17 -8 32q-7 14 -20 25v0zM424 1083q-125 1 -212 -64q-87 -64 -91 -200q4 -124 85 -200q82 -77 197 -144
q102 -61 166 -121t66 -147q-4 -108 -60 -152q-57 -44 -122 -43q-150 2 -209 106q-60 103 -76 277h-47q0 -153 -2 -249t-6 -160h47q6 38 17 58q11 19 25 19q5 0 10 -2q4 -2 9 -6q41 -33 84 -55q74 -29 162 -29q144 0 245 73t105 214q-3 123 -82 205q-79 81 -198 153
q-108 65 -184 124q-76 58 -79 147q2 77 48 117q47 40 120 40q137 -5 200 -98q63 -94 79 -213h47q0 130 2 212t6 136h-47q-5 -46 -17 -68q-11 -22 -29 -22q-15 0 -36 17q-28 24 -85 49q-57 24 -138 26v0z" />
    <glyph glyph-name="scaron" unicode="&#x161;" horiz-adv-x="913" 
d="M791 1642q-88 -39 -169 -94q-81 -54 -134 -110q-67 56 -170 110q-103 55 -215 94l-17 -28q120 -60 210 -154q89 -93 132 -198h37q43 105 132 198q90 94 210 154zM424 1083q-125 1 -212 -64q-87 -64 -91 -200q4 -124 85 -200q82 -77 197 -144q102 -61 166 -121t66 -147
q-4 -108 -60 -152q-57 -44 -122 -43q-150 2 -209 106q-60 103 -76 277h-47q0 -153 -2 -249t-6 -160h47q6 38 17 58q11 19 25 19q5 0 10 -2q4 -2 9 -6q41 -33 84 -55q74 -29 162 -29q144 0 245 73t105 214q-3 123 -82 205q-79 81 -198 153q-108 65 -184 124q-76 58 -79 147
q2 77 48 117q47 40 120 40q137 -5 200 -98q63 -94 79 -213h47q0 130 2 212t6 136h-47q-5 -46 -17 -68q-11 -22 -29 -22q-15 0 -36 17q-28 24 -85 49q-57 24 -138 26v0z" />
    <glyph glyph-name="scedilla" unicode="&#x15f;" horiz-adv-x="913" 
d="M467 -29q144 0 245 73t105 214q-3 123 -82 205q-79 81 -198 153q-108 65 -184 124q-76 58 -79 147q2 77 48 117q47 40 120 40q137 -5 200 -98q63 -94 79 -213h47q0 130 2 212t6 136h-47q-5 -46 -17 -68q-11 -22 -29 -22q-15 0 -36 17q-28 24 -85 49q-57 24 -138 26
q-125 1 -212 -64q-87 -64 -91 -200q4 -124 85 -200q82 -77 197 -144q102 -61 166 -121t66 -147q-4 -108 -60 -152q-57 -44 -122 -43q-150 2 -209 106q-60 103 -76 277h-47q0 -153 -2 -249t-6 -160h47q6 38 17 58q11 19 25 19q5 0 10 -2q4 -2 9 -6q41 -33 84 -55
q42 -16 88 -24l-58 -173q25 8 54 12q29 3 47 3q41 0 64 -14q22 -15 22 -44q-4 -54 -62 -73q-59 -20 -123 -19q-24 0 -45 2t-32 4l-9 -36q28 -10 71 -16q43 -7 99 -7q79 -1 153 35t79 121q-1 46 -34 71t-91 25q-34 0 -64 -4q-31 -4 -57 -10l39 118h21z" />
    <glyph glyph-name="scircumflex" unicode="&#x15d;" horiz-adv-x="913" 
d="M448 1642q-43 -105 -132 -198q-90 -94 -210 -154l17 -28q87 39 168 94q81 54 135 110q67 -56 169 -110q103 -55 216 -94l16 28q-120 60 -210 154q-89 93 -132 198h-37zM424 1083q-125 1 -212 -64q-87 -64 -91 -200q4 -124 85 -200q82 -77 197 -144q102 -61 166 -121
t66 -147q-4 -108 -60 -152q-57 -44 -122 -43q-150 2 -209 106q-60 103 -76 277h-47q0 -153 -2 -249t-6 -160h47q6 38 17 58q11 19 25 19q5 0 10 -2q4 -2 9 -6q41 -33 84 -55q74 -29 162 -29q144 0 245 73t105 214q-3 123 -82 205q-79 81 -198 153q-108 65 -184 124
q-76 58 -79 147q2 77 48 117q47 40 120 40q137 -5 200 -98q63 -94 79 -213h47q0 130 2 212t6 136h-47q-5 -46 -17 -68q-11 -22 -29 -22q-15 0 -36 17q-28 24 -85 49q-57 24 -138 26v0z" />
    <glyph glyph-name="scommaaccent" unicode="&#x219;" horiz-adv-x="913" 
d="M424 1083q-125 1 -212 -64q-87 -64 -91 -200q4 -124 85 -200q82 -77 197 -144q102 -61 166 -121t66 -147q-4 -108 -60 -152q-57 -44 -122 -43q-150 2 -209 106q-60 103 -76 277h-47q0 -153 -2 -249t-6 -160h47q6 38 17 58q11 19 25 19q5 0 10 -2q4 -2 9 -6q41 -33 84 -55
q74 -29 162 -29q144 0 245 73t105 214q-3 123 -82 205q-79 81 -198 153q-108 65 -184 124q-76 58 -79 147q2 77 48 117q47 40 120 40q137 -5 200 -98q63 -94 79 -213h47q0 130 2 212t6 136h-47q-5 -46 -17 -68q-11 -22 -29 -22q-15 0 -36 17q-28 24 -85 49q-57 24 -138 26v0
zM453 -141q-49 -1 -81 -31q-33 -30 -34 -78q1 -54 31 -82t76 -28q26 0 48 9t38 23q-1 -49 -39 -82q-39 -33 -88 -47l14 -37q96 35 133 86q37 50 35 123q-1 62 -36 102q-36 41 -97 42v0z" />
    <glyph glyph-name="germandbls" unicode="&#xdf;" horiz-adv-x="1196" 
d="M602 1602q-181 3 -290 -113q-110 -116 -113 -387v-879q1 -92 -33 -136q-35 -44 -123 -44v-43q65 6 127 6q60 0 114 -7q54 -6 99 -22v1301q5 185 70 242t127 51q98 -1 149 -71t51 -200q1 -131 -43 -229q-43 -98 -145 -176q-21 8 -40 12t-34 4q-23 0 -35 -11
q-12 -10 -12 -28q1 -17 13 -25q12 -9 28 -9q19 1 39 10t37 20q175 -61 258 -216t82 -333q-4 -177 -67 -248q-63 -72 -138 -69q-41 1 -70 16q-29 14 -37 33q45 15 67 42q22 28 22 65q-1 48 -32 74q-30 26 -77 26q-51 -1 -79 -31t-28 -80q5 -91 84 -134q78 -42 166 -42
q151 2 259 103q107 102 112 284q-6 205 -149 344q-143 138 -345 185q96 36 217 148t132 274q-1 136 -93 214t-270 79v0z" />
    <glyph glyph-name="t" unicode="t" horiz-adv-x="725" 
d="M389 1053v342q-39 -14 -86 -21t-98 -8v-313h-197v-41h197v-686q-1 -108 18 -175q18 -68 62 -112q33 -34 79 -51q45 -17 115 -17q123 3 185 82q62 78 81 201l-40 10q-32 -119 -78 -169q-46 -51 -107 -50q-62 -1 -96 39q-34 39 -35 135v793h303v41h-303z" />
    <glyph glyph-name="tbar" unicode="&#x167;" horiz-adv-x="770" 
d="M711 264q-32 -119 -78 -169q-46 -51 -107 -50q-62 -1 -96 39q-34 39 -35 135v602h303v41h-303v150h303v41h-303v342q-39 -14 -86 -21t-98 -8v-313h-197v-41h197v-150h-197v-41h197v-495q-1 -108 18 -175q18 -68 62 -112q33 -34 79 -51q45 -17 115 -17q123 3 185 82
q62 78 81 201z" />
    <glyph glyph-name="tcaron" unicode="&#x165;" horiz-adv-x="725" 
d="M684 1604q-24 -10 -53 -17t-69 -7q-15 0 -33 1v-43q25 0 33 -21q9 -21 8 -61q0 -25 -8 -93q-9 -67 -33 -204l28 -8q64 131 101 221q36 89 37 148q0 20 -3 45q-3 26 -8 39v0zM389 1053v342q-39 -14 -86 -21t-98 -8v-313h-197v-41h197v-686q-1 -108 18 -175q18 -68 62 -112
q33 -34 79 -51q45 -17 115 -17q123 3 185 82q62 78 81 201l-40 10q-32 -119 -78 -169q-46 -51 -107 -50q-62 -1 -96 39q-34 39 -35 135v793h303v41h-303z" />
    <glyph glyph-name="tcedilla" unicode="&#x163;" horiz-adv-x="725" 
d="M540 -133q-34 0 -64 -4q-31 -4 -57 -10l39 118h21q123 3 185 82q62 78 81 201l-40 10q-32 -119 -78 -169q-46 -51 -107 -50q-62 -1 -96 39q-34 39 -35 135v793h303v41h-303v342q-39 -14 -86 -21t-98 -8v-313h-197v-41h197v-686q-1 -108 18 -175q18 -68 62 -112
q24 -24 53 -40q28 -15 67 -22l-58 -174q25 8 54 12q29 3 47 3q41 0 64 -14q22 -15 22 -44q-4 -54 -62 -73q-59 -20 -123 -19q-24 0 -45 2t-32 4l-9 -36q28 -10 71 -16q43 -7 99 -7q79 -1 153 35t79 121q-1 46 -34 71t-91 25v0z" />
    <glyph glyph-name="uni021B" unicode="&#x21b;" horiz-adv-x="725" 
d="M389 1053v342q-39 -14 -86 -21t-98 -8v-313h-197v-41h197v-686q-1 -108 18 -175q18 -68 62 -112q33 -34 79 -51q45 -17 115 -17q123 3 185 82q62 78 81 201l-40 10q-32 -119 -78 -169q-46 -51 -107 -50q-62 -1 -96 39q-34 39 -35 135v793h303v41h-303zM465 -141
q-49 -1 -81 -31q-33 -30 -34 -78q1 -54 31 -82t76 -28q26 0 48 9t38 23q-1 -49 -39 -82q-39 -33 -88 -47l14 -37q96 35 133 86q37 50 35 123q-1 62 -36 102q-36 41 -97 42v0z" />
    <glyph glyph-name="u" unicode="u" horiz-adv-x="1190" 
d="M989 1077q-45 -15 -99 -21q-54 -7 -114 -7q-62 0 -127 6v-43q88 0 123 -44q34 -45 33 -137v-423q-2 -160 -78 -264q-77 -103 -199 -107q-106 3 -133 70q-26 67 -22 165v805q-45 -15 -99 -21q-54 -7 -114 -7q-62 0 -127 6v-43q88 0 122 -44q34 -45 33 -137v-514
q-1 -96 15 -162q15 -65 53 -106q35 -37 88 -57q53 -21 125 -21q100 -1 191 56q90 58 145 190v-242q45 16 99 22q54 7 114 7q62 0 127 -6v43q-88 0 -123 44q-34 44 -33 136v856z" />
    <glyph glyph-name="uacute" unicode="&#xfa;" horiz-adv-x="1190" 
d="M792 1665q-19 15 -45 15q-19 0 -39 -11q-20 -10 -39 -35q-42 -58 -87 -150q-44 -92 -136 -239l22 -18q121 125 199 190q79 65 125 121q14 19 21 37q7 17 7 33q0 17 -8 32q-7 14 -20 25v0zM989 1077q-45 -15 -99 -21q-54 -7 -114 -7q-62 0 -127 6v-43q88 0 123 -44
q34 -45 33 -137v-423q-2 -160 -78 -264q-77 -103 -199 -107q-106 3 -133 70q-26 67 -22 165v805q-45 -15 -99 -21q-54 -7 -114 -7q-62 0 -127 6v-43q88 0 122 -44q34 -45 33 -137v-514q-1 -96 15 -162q15 -65 53 -106q35 -37 88 -57q53 -21 125 -21q100 -1 191 56
q90 58 145 190v-242q45 16 99 22q54 7 114 7q62 0 127 -6v43q-88 0 -123 44q-34 44 -33 136v856z" />
    <glyph glyph-name="ubreve" unicode="&#x16d;" horiz-adv-x="1190" 
d="M903 1614q-40 -73 -121 -133q-80 -60 -211 -64q-131 4 -211 64t-121 133l-34 -19q43 -109 134 -201t232 -98q142 6 233 98t134 201zM989 1077q-45 -15 -99 -21q-54 -7 -114 -7q-62 0 -127 6v-43q88 0 123 -44q34 -45 33 -137v-423q-2 -160 -78 -264q-77 -103 -199 -107
q-106 3 -133 70q-26 67 -22 165v805q-45 -15 -99 -21q-54 -7 -114 -7q-62 0 -127 6v-43q88 0 122 -44q34 -45 33 -137v-514q-1 -96 15 -162q15 -65 53 -106q35 -37 88 -57q53 -21 125 -21q100 -1 191 56q90 58 145 190v-242q45 16 99 22q54 7 114 7q62 0 127 -6v43
q-88 0 -123 44q-34 44 -33 136v856z" />
    <glyph glyph-name="ucircumflex" unicode="&#xfb;" horiz-adv-x="1190" 
d="M554 1642q-43 -105 -132 -198q-90 -94 -210 -154l17 -28q87 39 168 94q81 54 135 110q67 -56 169 -110q103 -55 216 -94l16 28q-120 60 -210 154q-89 93 -132 198h-37zM989 1077q-45 -15 -99 -21q-54 -7 -114 -7q-62 0 -127 6v-43q88 0 123 -44q34 -45 33 -137v-423
q-2 -160 -78 -264q-77 -103 -199 -107q-106 3 -133 70q-26 67 -22 165v805q-45 -15 -99 -21q-54 -7 -114 -7q-62 0 -127 6v-43q88 0 122 -44q34 -45 33 -137v-514q-1 -96 15 -162q15 -65 53 -106q35 -37 88 -57q53 -21 125 -21q100 -1 191 56q90 58 145 190v-242
q45 16 99 22q54 7 114 7q62 0 127 -6v43q-88 0 -123 44q-34 44 -33 136v856z" />
    <glyph glyph-name="udieresis" unicode="&#xfc;" horiz-adv-x="1190" 
d="M358 1522q-50 -2 -84 -36t-35 -83q1 -51 35 -84q34 -34 84 -35q49 1 84 35q34 33 35 84q-1 49 -35 83q-35 34 -84 36v0zM792 1522q-50 -2 -83 -36q-34 -34 -35 -83q1 -51 35 -84q33 -34 83 -35q49 1 84 35q34 33 35 84q-1 49 -35 83q-35 34 -84 36v0zM989 1077
q-45 -15 -99 -21q-54 -7 -114 -7q-62 0 -127 6v-43q88 0 123 -44q34 -45 33 -137v-423q-2 -160 -78 -264q-77 -103 -199 -107q-106 3 -133 70q-26 67 -22 165v805q-45 -15 -99 -21q-54 -7 -114 -7q-62 0 -127 6v-43q88 0 122 -44q34 -45 33 -137v-514q-1 -96 15 -162
q15 -65 53 -106q35 -37 88 -57q53 -21 125 -21q100 -1 191 56q90 58 145 190v-242q45 16 99 22q54 7 114 7q62 0 127 -6v43q-88 0 -123 44q-34 44 -33 136v856z" />
    <glyph glyph-name="ugrave" unicode="&#xf9;" horiz-adv-x="1190" 
d="M321 1665q-13 -11 -20 -25q-8 -15 -8 -32q0 -16 7 -33q7 -18 21 -37q46 -56 124 -121t199 -190l23 18q-92 147 -136 239q-45 92 -87 150q-19 25 -39 35q-20 11 -40 11q-24 0 -44 -15v0zM989 1077q-45 -15 -99 -21q-54 -7 -114 -7q-62 0 -127 6v-43q88 0 123 -44
q34 -45 33 -137v-423q-2 -160 -78 -264q-77 -103 -199 -107q-106 3 -133 70q-26 67 -22 165v805q-45 -15 -99 -21q-54 -7 -114 -7q-62 0 -127 6v-43q88 0 122 -44q34 -45 33 -137v-514q-1 -96 15 -162q15 -65 53 -106q35 -37 88 -57q53 -21 125 -21q100 -1 191 56
q90 58 145 190v-242q45 16 99 22q54 7 114 7q62 0 127 -6v43q-88 0 -123 44q-34 44 -33 136v856z" />
    <glyph glyph-name="uhungarumlaut" unicode="&#x171;" horiz-adv-x="1190" 
d="M648 1665q-20 15 -44 15q-20 0 -40 -11q-20 -10 -39 -35q-42 -58 -87 -150q-44 -92 -136 -239l23 -18q121 125 199 190t124 121q14 19 21 37q7 17 7 33q0 17 -8 32q-7 14 -20 25v0zM1013 1665q-19 15 -45 15q-19 0 -39 -11q-20 -10 -39 -35q-42 -58 -87 -150
q-44 -92 -136 -239l22 -18q121 125 199 190t125 121q14 19 21 37q7 17 7 33q0 17 -8 32q-7 14 -20 25v0zM989 1077q-45 -15 -99 -21q-54 -7 -114 -7q-62 0 -127 6v-43q88 0 123 -44q34 -45 33 -137v-423q-2 -160 -78 -264q-77 -103 -199 -107q-106 3 -133 70q-26 67 -22 165
v805q-45 -15 -99 -21q-54 -7 -114 -7q-62 0 -127 6v-43q88 0 122 -44q34 -45 33 -137v-514q-1 -96 15 -162q15 -65 53 -106q35 -37 88 -57q53 -21 125 -21q100 -1 191 56q90 58 145 190v-242q45 16 99 22q54 7 114 7q62 0 127 -6v43q-88 0 -123 44q-34 44 -33 136v856z" />
    <glyph glyph-name="umacron" unicode="&#x16b;" horiz-adv-x="1190" 
d="M886 1407v51h-639v-51h639zM989 1077q-45 -15 -99 -21q-54 -7 -114 -7q-62 0 -127 6v-43q88 0 123 -44q34 -45 33 -137v-423q-2 -160 -78 -264q-77 -103 -199 -107q-106 3 -133 70q-26 67 -22 165v805q-45 -15 -99 -21q-54 -7 -114 -7q-62 0 -127 6v-43q88 0 122 -44
q34 -45 33 -137v-514q-1 -96 15 -162q15 -65 53 -106q35 -37 88 -57q53 -21 125 -21q100 -1 191 56q90 58 145 190v-242q45 16 99 22q54 7 114 7q62 0 127 -6v43q-88 0 -123 44q-34 44 -33 136v856z" />
    <glyph glyph-name="uogonek" unicode="&#x173;" horiz-adv-x="1190" 
d="M1133 -219q-21 -29 -53 -48q-33 -19 -72 -20q-42 1 -65 25q-23 25 -23 65q-1 50 39 100q41 50 139 93q6 2 13 5l34 -3v43q-88 0 -123 44q-34 44 -33 136v856q-45 -15 -99 -21q-54 -7 -114 -7q-62 0 -127 6v-43q88 0 123 -44q34 -45 33 -137v-423q-2 -160 -78 -264
q-77 -103 -199 -107q-106 3 -133 70q-26 67 -22 165v805q-45 -15 -99 -21q-54 -7 -114 -7q-62 0 -127 6v-43q88 0 122 -44q34 -45 33 -137v-514q-1 -96 15 -162q15 -65 53 -106q35 -37 88 -57q53 -21 125 -21q100 -1 191 56q90 58 145 190v-242q45 16 99 22q54 7 114 7h28
q-133 -45 -204 -110q-71 -66 -72 -146q1 -61 44 -96q44 -36 118 -37q68 0 126 34q58 33 105 105z" />
    <glyph glyph-name="uring" unicode="&#x16f;" horiz-adv-x="1190" 
d="M573 1620q-80 -1 -137 -50q-56 -50 -59 -136q3 -89 59 -138q57 -50 137 -51q83 1 140 51q57 49 59 138q-2 86 -59 136q-57 49 -140 50v0zM573 1577q54 0 97 -37t45 -108q-2 -73 -45 -108q-43 -36 -97 -36q-51 0 -94 36q-42 35 -45 108q3 71 45 108q43 37 94 37v0z
M989 1077q-45 -15 -99 -21q-54 -7 -114 -7q-62 0 -127 6v-43q88 0 123 -44q34 -45 33 -137v-423q-2 -160 -78 -264q-77 -103 -199 -107q-106 3 -133 70q-26 67 -22 165v805q-45 -15 -99 -21q-54 -7 -114 -7q-62 0 -127 6v-43q88 0 122 -44q34 -45 33 -137v-514
q-1 -96 15 -162q15 -65 53 -106q35 -37 88 -57q53 -21 125 -21q100 -1 191 56q90 58 145 190v-242q45 16 99 22q54 7 114 7q62 0 127 -6v43q-88 0 -123 44q-34 44 -33 136v856z" />
    <glyph glyph-name="utilde" unicode="&#x169;" horiz-adv-x="1190" 
d="M422 1573q-80 1 -145 -49t-99 -162l29 -14q35 57 75 84q39 26 83 26q83 -9 144 -68q60 -60 167 -69q78 -1 143 49q65 49 99 162l-29 14q-35 -58 -75 -83q-39 -26 -83 -25q-84 8 -144 68q-60 59 -165 67v0zM989 1077q-45 -15 -99 -21q-54 -7 -114 -7q-62 0 -127 6v-43
q88 0 123 -44q34 -45 33 -137v-423q-2 -160 -78 -264q-77 -103 -199 -107q-106 3 -133 70q-26 67 -22 165v805q-45 -15 -99 -21q-54 -7 -114 -7q-62 0 -127 6v-43q88 0 122 -44q34 -45 33 -137v-514q-1 -96 15 -162q15 -65 53 -106q35 -37 88 -57q53 -21 125 -21
q100 -1 191 56q90 58 145 190v-242q45 16 99 22q54 7 114 7q62 0 127 -6v43q-88 0 -123 44q-34 44 -33 136v856z" />
    <glyph glyph-name="v" unicode="v" horiz-adv-x="1001" 
d="M840 1049q-46 0 -83 2q-38 1 -89 4v-41q78 -5 115 -28q36 -23 36 -70q0 -38 -22 -95l-226 -592l-252 623q-11 28 -17 51q-5 22 -5 39q2 50 43 61q42 11 102 9v43q-63 -4 -132 -6q-70 -2 -134 -2q-52 0 -96 3q-45 2 -84 5v-43q22 3 54 -17q31 -21 65 -98l377 -907h34
l336 880q29 77 62 109t71 35v41q-32 -3 -70 -4q-38 -2 -85 -2v0z" />
    <glyph glyph-name="w" unicode="w" horiz-adv-x="1577" 
d="M1415 1049q-45 0 -83 2q-37 1 -89 4v-41q79 -5 116 -27q36 -23 36 -73q0 -19 -5 -42t-14 -51l-192 -587l-314 829h-47l-294 -812l-205 589q-11 31 -16 55t-5 42q2 55 42 66q41 11 101 9v43q-62 -5 -132 -9t-134 -4q-52 0 -96 4q-44 3 -84 9v-43q22 3 54 -17
q32 -19 65 -98l336 -907h34l292 824l325 -824h35l297 880q27 79 61 110t72 34v41q-32 -3 -70 -4q-38 -2 -86 -2v0z" />
    <glyph glyph-name="wacute" unicode="&#x1e83;" horiz-adv-x="1577" 
d="M1061 1538q14 19 21 37q7 17 7 33q0 17 -8 32q-7 14 -20 25q-19 15 -45 15q-19 0 -39 -11q-20 -10 -39 -35q-42 -58 -87 -150q-44 -92 -136 -239l22 -18q121 125 199 190q79 65 125 121v0zM1415 1049q-45 0 -83 2q-37 1 -89 4v-41q79 -5 116 -27q36 -23 36 -73
q0 -19 -5 -42t-14 -51l-192 -587l-314 829h-47l-294 -812l-205 589q-11 31 -16 55t-5 42q2 55 42 66q41 11 101 9v43q-62 -5 -132 -9t-134 -4q-52 0 -96 4q-44 3 -84 9v-43q22 3 54 -17q32 -19 65 -98l336 -907h34l292 824l325 -824h35l297 880q27 79 61 110t72 34v41
q-32 -3 -70 -4q-38 -2 -86 -2v0z" />
    <glyph glyph-name="wcircumflex" unicode="&#x175;" horiz-adv-x="1577" 
d="M801 1466q67 -56 169 -110q103 -55 216 -94l16 28q-120 60 -210 154q-89 93 -132 198h-37q-43 -105 -132 -198q-90 -94 -210 -154l17 -28q87 39 168 94q81 54 135 110v0zM1415 1049q-45 0 -83 2q-37 1 -89 4v-41q79 -5 116 -27q36 -23 36 -73q0 -19 -5 -42t-14 -51
l-192 -587l-314 829h-47l-294 -812l-205 589q-11 31 -16 55t-5 42q2 55 42 66q41 11 101 9v43q-62 -5 -132 -9t-134 -4q-52 0 -96 4q-44 3 -84 9v-43q22 3 54 -17q32 -19 65 -98l336 -907h34l292 824l325 -824h35l297 880q27 79 61 110t72 34v41q-32 -3 -70 -4
q-38 -2 -86 -2v0z" />
    <glyph glyph-name="wdieresis" unicode="&#x1e85;" horiz-adv-x="1577" 
d="M627 1284q49 1 84 35q34 33 35 84q-1 49 -35 83q-35 34 -84 36q-50 -2 -84 -36t-35 -83q1 -51 35 -84q34 -34 84 -35v0zM1061 1284q49 1 84 35q34 33 35 84q-1 49 -35 83q-35 34 -84 36q-50 -2 -83 -36q-34 -34 -35 -83q1 -51 35 -84q33 -34 83 -35v0zM1415 1049
q-45 0 -83 2q-37 1 -89 4v-41q79 -5 116 -27q36 -23 36 -73q0 -19 -5 -42t-14 -51l-192 -587l-314 829h-47l-294 -812l-205 589q-11 31 -16 55t-5 42q2 55 42 66q41 11 101 9v43q-62 -5 -132 -9t-134 -4q-52 0 -96 4q-44 3 -84 9v-43q22 3 54 -17q32 -19 65 -98l336 -907h34
l292 824l325 -824h35l297 880q27 79 61 110t72 34v41q-32 -3 -70 -4q-38 -2 -86 -2v0z" />
    <glyph glyph-name="wgrave" unicode="&#x1e81;" horiz-adv-x="1577" 
d="M936 1245q-92 147 -136 239q-45 92 -87 150q-19 25 -39 35q-20 11 -40 11q-24 0 -44 -15q-13 -11 -20 -25q-8 -15 -8 -32q0 -16 7 -33q7 -18 21 -37q46 -56 124 -121t199 -190zM1415 1049q-45 0 -83 2q-37 1 -89 4v-41q79 -5 116 -27q36 -23 36 -73q0 -19 -5 -42t-14 -51
l-192 -587l-314 829h-47l-294 -812l-205 589q-11 31 -16 55t-5 42q2 55 42 66q41 11 101 9v43q-62 -5 -132 -9t-134 -4q-52 0 -96 4q-44 3 -84 9v-43q22 3 54 -17q32 -19 65 -98l336 -907h34l292 824l325 -824h35l297 880q27 79 61 110t72 34v41q-32 -3 -70 -4
q-38 -2 -86 -2v0z" />
    <glyph glyph-name="x" unicode="x" horiz-adv-x="1063" 
d="M608 584l207 286q50 68 96 104q45 36 84 40v41q-32 -3 -70 -4q-38 -2 -85 -2q-46 0 -83 2q-38 1 -89 4v-41q60 -4 89 -20q28 -16 28 -44q0 -23 -16 -55t-46 -74l-142 -198l-219 319q-8 14 -8 24q1 22 24 34t56 12v43q-35 -2 -104 -5q-70 -3 -137 -3q-42 0 -83 3t-63 5
v-43q35 -3 61 -24q27 -21 66 -79l285 -414l-236 -311q-58 -75 -100 -107q-43 -33 -80 -36v-41q32 3 70 5q38 1 86 1q49 0 113 -1q64 -2 120 -5v41q-70 4 -110 28q-40 23 -41 66q0 24 14 55t43 68l150 195l233 -340q9 -13 9 -24q-1 -21 -25 -33q-23 -13 -56 -13v-43
q35 2 105 5q69 3 137 3q41 0 83 -3q41 -3 62 -5v43q-38 7 -66 30q-27 23 -61 72z" />
    <glyph glyph-name="y" unicode="y" horiz-adv-x="1032" 
d="M856 1049q-45 0 -83 2q-37 1 -89 4v-41q78 -5 116 -28q37 -23 37 -71q0 -19 -6 -42q-5 -24 -16 -52l-226 -593l-247 612q-13 33 -20 58q-6 25 -6 43q2 51 43 62t100 9v43q-63 -5 -133 -9t-133 -4q-58 0 -108 4q-49 3 -93 9v-43q25 3 62 -17q37 -21 77 -98l372 -894
l-73 -187q-32 -84 -75 -122q-44 -39 -99 -38q-6 0 -12 2q22 12 38 34q16 23 17 58q-1 48 -31 72q-29 24 -73 24q-51 -1 -80 -30t-29 -78q1 -60 40 -91q39 -32 99 -32q38 -1 82 11q43 12 78 42q25 21 46 57q22 35 42 87l70 178l336 880q29 77 62 109t71 35v41q-32 -3 -70 -4
q-38 -2 -86 -2v0z" />
    <glyph glyph-name="yacute" unicode="&#xfd;" horiz-adv-x="1032" 
d="M739 1538q14 19 21 37q7 17 7 33q0 17 -8 32q-7 14 -20 25q-19 15 -45 15q-19 0 -39 -11q-20 -10 -39 -35q-42 -58 -87 -150q-44 -92 -136 -239l22 -18q121 125 199 190q79 65 125 121v0zM856 1049q-45 0 -83 2q-37 1 -89 4v-41q78 -5 116 -28q37 -23 37 -71
q0 -19 -6 -42q-5 -24 -16 -52l-226 -593l-247 612q-13 33 -20 58q-6 25 -6 43q2 51 43 62t100 9v43q-63 -5 -133 -9t-133 -4q-58 0 -108 4q-49 3 -93 9v-43q25 3 62 -17q37 -21 77 -98l372 -894l-73 -187q-32 -84 -75 -122q-44 -39 -99 -38q-6 0 -12 2q22 12 38 34
q16 23 17 58q-1 48 -31 72q-29 24 -73 24q-51 -1 -80 -30t-29 -78q1 -60 40 -91q39 -32 99 -32q38 -1 82 11q43 12 78 42q25 21 46 57q22 35 42 87l70 178l336 880q29 77 62 109t71 35v41q-32 -3 -70 -4q-38 -2 -86 -2v0z" />
    <glyph glyph-name="ycircumflex" unicode="&#x177;" horiz-adv-x="1032" 
d="M479 1466q67 -56 169 -110q103 -55 216 -94l16 28q-120 60 -210 154q-89 93 -132 198h-37q-43 -105 -132 -198q-90 -94 -210 -154l17 -28q87 39 168 94q81 54 135 110v0zM856 1049q-45 0 -83 2q-37 1 -89 4v-41q78 -5 116 -28q37 -23 37 -71q0 -19 -6 -42q-5 -24 -16 -52
l-226 -593l-247 612q-13 33 -20 58q-6 25 -6 43q2 51 43 62t100 9v43q-63 -5 -133 -9t-133 -4q-58 0 -108 4q-49 3 -93 9v-43q25 3 62 -17q37 -21 77 -98l372 -894l-73 -187q-32 -84 -75 -122q-44 -39 -99 -38q-6 0 -12 2q22 12 38 34q16 23 17 58q-1 48 -31 72
q-29 24 -73 24q-51 -1 -80 -30t-29 -78q1 -60 40 -91q39 -32 99 -32q38 -1 82 11q43 12 78 42q25 21 46 57q22 35 42 87l70 178l336 880q29 77 62 109t71 35v41q-32 -3 -70 -4q-38 -2 -86 -2v0z" />
    <glyph glyph-name="ydieresis" unicode="&#xff;" horiz-adv-x="1032" 
d="M305 1284q49 1 84 35q34 33 35 84q-1 49 -35 83q-35 34 -84 36q-50 -2 -84 -36t-35 -83q1 -51 35 -84q34 -34 84 -35v0zM739 1284q49 1 84 35q34 33 35 84q-1 49 -35 83q-35 34 -84 36q-50 -2 -83 -36q-34 -34 -35 -83q1 -51 35 -84q33 -34 83 -35v0zM856 1049
q-45 0 -83 2q-37 1 -89 4v-41q78 -5 116 -28q37 -23 37 -71q0 -19 -6 -42q-5 -24 -16 -52l-226 -593l-247 612q-13 33 -20 58q-6 25 -6 43q2 51 43 62t100 9v43q-63 -5 -133 -9t-133 -4q-58 0 -108 4q-49 3 -93 9v-43q25 3 62 -17q37 -21 77 -98l372 -894l-73 -187
q-32 -84 -75 -122q-44 -39 -99 -38q-6 0 -12 2q22 12 38 34q16 23 17 58q-1 48 -31 72q-29 24 -73 24q-51 -1 -80 -30t-29 -78q1 -60 40 -91q39 -32 99 -32q38 -1 82 11q43 12 78 42q25 21 46 57q22 35 42 87l70 178l336 880q29 77 62 109t71 35v41q-32 -3 -70 -4
q-38 -2 -86 -2v0z" />
    <glyph glyph-name="ygrave" unicode="&#x1ef3;" horiz-adv-x="1032" 
d="M614 1245q-92 147 -136 239q-45 92 -87 150q-19 25 -39 35q-20 11 -40 11q-24 0 -44 -15q-13 -11 -20 -25q-8 -15 -8 -32q0 -16 7 -33q7 -18 21 -37q46 -56 124 -121t199 -190zM856 1049q-45 0 -83 2q-37 1 -89 4v-41q78 -5 116 -28q37 -23 37 -71q0 -19 -6 -42
q-5 -24 -16 -52l-226 -593l-247 612q-13 33 -20 58q-6 25 -6 43q2 51 43 62t100 9v43q-63 -5 -133 -9t-133 -4q-58 0 -108 4q-49 3 -93 9v-43q25 3 62 -17q37 -21 77 -98l372 -894l-73 -187q-32 -84 -75 -122q-44 -39 -99 -38q-6 0 -12 2q22 12 38 34q16 23 17 58
q-1 48 -31 72q-29 24 -73 24q-51 -1 -80 -30t-29 -78q1 -60 40 -91q39 -32 99 -32q38 -1 82 11q43 12 78 42q25 21 46 57q22 35 42 87l70 178l336 880q29 77 62 109t71 35v41q-32 -3 -70 -4q-38 -2 -86 -2v0z" />
    <glyph glyph-name="z" unicode="z" horiz-adv-x="975" 
d="M307 31l592 1034q-99 -5 -204 -7q-106 -3 -210 -3q-97 0 -193 2q-97 2 -188 6q5 -56 7 -147t2 -222h47q13 177 81 254q68 78 203 76h226l-592 -1034q99 5 204 7q106 3 210 3q97 0 193 -2q97 -2 187 -6q-4 56 -6 147q-2 90 -2 221h-47q-14 -176 -88 -253q-75 -78 -197 -76
h-225z" />
    <glyph glyph-name="zacute" unicode="&#x17a;" horiz-adv-x="975" 
d="M739 1665q-19 15 -45 15q-19 0 -39 -11q-20 -10 -39 -35q-42 -58 -87 -150q-44 -92 -136 -239l22 -18q121 125 199 190q79 65 125 121q14 19 21 37q7 17 7 33q0 17 -8 32q-7 14 -20 25v0zM307 31l592 1034q-99 -5 -204 -7q-106 -3 -210 -3q-97 0 -193 2q-97 2 -188 6
q5 -56 7 -147t2 -222h47q13 177 81 254q68 78 203 76h226l-592 -1034q99 5 204 7q106 3 210 3q97 0 193 -2q97 -2 187 -6q-4 56 -6 147q-2 90 -2 221h-47q-14 -176 -88 -253q-75 -78 -197 -76h-225z" />
    <glyph glyph-name="zcaron" unicode="&#x17e;" horiz-adv-x="975" 
d="M844 1642q-88 -39 -169 -94q-81 -54 -134 -110q-67 56 -170 110q-103 55 -215 94l-17 -28q120 -60 210 -154q89 -93 132 -198h37q43 105 132 198q90 94 210 154zM307 31l592 1034q-99 -5 -204 -7q-106 -3 -210 -3q-97 0 -193 2q-97 2 -188 6q5 -56 7 -147t2 -222h47
q13 177 81 254q68 78 203 76h226l-592 -1034q99 5 204 7q106 3 210 3q97 0 193 -2q97 -2 187 -6q-4 56 -6 147q-2 90 -2 221h-47q-14 -176 -88 -253q-75 -78 -197 -76h-225z" />
    <glyph glyph-name="zdotaccent" unicode="&#x17c;" horiz-adv-x="975" 
d="M520 1567q-55 -2 -92 -39q-38 -37 -39 -92q1 -55 39 -92q37 -38 92 -39q55 1 92 39q37 37 39 92q-2 55 -39 92t-92 39v0zM307 31l592 1034q-99 -5 -204 -7q-106 -3 -210 -3q-97 0 -193 2q-97 2 -188 6q5 -56 7 -147t2 -222h47q13 177 81 254q68 78 203 76h226l-592 -1034
q99 5 204 7q106 3 210 3q97 0 193 -2q97 -2 187 -6q-4 56 -6 147q-2 90 -2 221h-47q-14 -176 -88 -253q-75 -78 -197 -76h-225z" />
    <glyph glyph-name="glyph264" horiz-adv-x="995" 
d="M713 1675q-7 3 -15 5t-16 2q-23 0 -45 -16t-37 -50q-24 -63 -33 -140q-9 -78 -61 -239l27 -12q85 148 133 207q49 59 78 120q12 29 12 53q0 26 -12 44t-31 26v0zM571 1083q-214 -4 -343 -158q-130 -155 -134 -411q5 -256 131 -398q127 -143 322 -145q163 5 255 93
q92 87 122 192l-39 14q-56 -115 -136 -164q-80 -48 -161 -47q-122 -4 -207 107q-84 110 -88 379q6 285 96 396t197 106q60 -1 111 -25q51 -23 73 -61q-36 -10 -61 -38q-24 -29 -25 -75q1 -50 33 -76q32 -27 80 -27q47 0 77 30q30 29 31 85q0 47 -25 87t-71 71
q-50 32 -111 49q-62 16 -127 16v0z" />
    <glyph glyph-name="glyph265" horiz-adv-x="1223" 
d="M801 1675q-7 3 -15 5t-16 2q-23 0 -45 -16t-37 -50q-24 -63 -33 -140q-9 -78 -61 -239l27 -12q85 148 133 207q49 59 78 120q12 29 12 53q0 26 -12 44t-31 26v0zM748 1083q-107 2 -200 -54q-93 -57 -149 -193v241q-45 -15 -99 -21q-54 -7 -114 -7q-62 0 -127 6v-43
q88 0 123 -44q34 -45 33 -137v-641q1 -84 -36 -116q-36 -32 -120 -31v-43q38 2 107 5t139 3q69 0 133 -3q63 -3 97 -5v43q-73 -1 -105 31t-31 116v455q2 160 79 265q77 104 208 108q108 -3 139 -70q31 -68 27 -166v-592q1 -84 -31 -116q-31 -32 -104 -31v-43q34 2 97 5
t132 3q70 0 139 -3t107 -5v43q-84 -1 -120 31q-37 32 -36 116v547q0 103 -16 166q-17 63 -55 103q-35 37 -87 57q-53 20 -130 20v0z" />
    <glyph glyph-name="glyph266" horiz-adv-x="1122" 
d="M741 1675q-7 3 -15 5t-16 2q-23 0 -45 -16t-37 -50q-24 -63 -33 -140q-9 -78 -61 -239l27 -12q85 148 133 207q49 59 78 120q12 29 12 53q0 26 -12 44t-31 26v0zM561 1083q-200 2 -330 -131t-135 -426q5 -293 135 -425t330 -130q200 -2 330 130t135 425q-5 293 -135 426
t-330 131v0zM561 1042q119 2 192 -120q72 -123 74 -396q-2 -272 -74 -394q-73 -122 -192 -120q-118 -2 -191 120t-75 394q2 273 75 396q73 122 191 120v0z" />
    <glyph glyph-name="glyph267" horiz-adv-x="913" 
d="M641 1675q-7 3 -15 5t-16 2q-23 0 -45 -16t-37 -50q-24 -63 -33 -140q-9 -78 -61 -239l27 -12q85 148 133 207q49 59 78 120q12 29 12 53q0 26 -12 44t-31 26v0zM424 1083q-125 1 -212 -64q-87 -64 -91 -200q4 -124 85 -200q82 -77 197 -144q102 -61 166 -121t66 -147
q-4 -108 -60 -152q-57 -44 -122 -43q-150 2 -209 106q-60 103 -76 277h-47q0 -153 -2 -249t-6 -160h47q6 38 17 58q11 19 25 19q5 0 10 -2q4 -2 9 -6q41 -33 84 -55q74 -29 162 -29q144 0 245 73t105 214q-3 123 -82 205q-79 81 -198 153q-108 65 -184 124q-76 58 -79 147
q2 77 48 117q47 40 120 40q137 -5 200 -98q63 -94 79 -213h47q0 130 2 212t6 136h-47q-5 -46 -17 -68q-11 -22 -29 -22q-15 0 -36 17q-28 24 -85 49q-57 24 -138 26v0z" />
    <glyph glyph-name="glyph268" horiz-adv-x="975" 
d="M694 1675q-7 3 -15 5t-16 2q-23 0 -45 -16t-37 -50q-24 -63 -33 -140q-9 -78 -61 -239l27 -12q85 148 133 207q49 59 78 120q12 29 12 53q0 26 -12 44t-31 26v0zM307 31l592 1034q-99 -5 -204 -7q-106 -3 -210 -3q-97 0 -193 2q-97 2 -188 6q5 -56 7 -147t2 -222h47
q13 177 81 254q68 78 203 76h226l-592 -1034q99 5 204 7q106 3 210 3q97 0 193 -2q97 -2 187 -6q-4 56 -6 147q-2 90 -2 221h-47q-14 -176 -88 -253q-75 -78 -197 -76h-225z" />
    <glyph glyph-name="glyph269" horiz-adv-x="2314" 
d="M2128 735q0 103 -17 166q-17 62 -55 103q-35 37 -87 57t-130 20q-106 2 -199 -53q-93 -56 -149 -192v766q-39 -14 -86 -21t-98 -8v-124q-155 -4 -330 -4q-174 -1 -320 -1q-135 0 -298 1t-300 5q8 -80 12 -151q3 -71 3 -111q0 -50 -1 -93q-2 -42 -5 -75h47q14 211 72 298
q58 88 243 85h131v-1165q3 -121 -39 -158q-42 -38 -168 -39v-41q51 3 131 5q79 1 172 1q85 0 166 -1q80 -2 135 -5v41q-126 1 -167 39q-42 37 -39 158v1165h555v-1215q1 -84 -36 -116q-36 -32 -120 -31v-43q38 2 107 5t139 3q69 0 132 -3t97 -5v43q-73 -1 -104 31
q-32 32 -31 116v457q2 166 81 267q78 101 206 104q107 -3 138 -70q31 -68 28 -166v-592q1 -84 -31 -116t-105 -31v-43q34 2 97 5q64 3 133 3q70 0 139 -3t107 -5v43q-84 -1 -120 31q-37 32 -36 116v547z" />
    <glyph glyph-name="glyph270" horiz-adv-x="1769" 
d="M1712 262q-37 -119 -85 -168q-48 -50 -109 -49q-59 -1 -95 40q-36 42 -37 142v785h324v41h-324v342q-33 -12 -72 -18q-39 -7 -81 -10q-19 126 -91 181t-173 54q-119 1 -205 -64q-86 -64 -90 -201q3 -110 49 -189q47 -79 103 -160q-45 51 -111 73q-67 22 -142 22
q-216 -4 -346 -158q-130 -155 -133 -411q4 -256 132 -398q127 -143 323 -145q162 5 254 93q91 87 121 192l-39 14q-56 -115 -136 -164q-80 -48 -163 -47q-121 -3 -205 108q-84 110 -88 372q6 291 96 402t197 106q60 -1 111 -25q51 -23 73 -61q-39 -8 -62 -35t-24 -70
q1 -53 33 -82t80 -29q47 0 77 30q30 29 31 85q0 41 -18 76q-56 114 -109 198t-57 205q3 122 74 175q71 52 170 51q115 -1 176 -72t61 -201v-239h-196v-41h196v-686q-1 -108 17 -176q17 -69 61 -113q33 -34 79 -50t118 -16q122 2 188 80q65 77 88 199z" />
    <glyph glyph-name="glyph271" horiz-adv-x="1835" 
d="M1350 1083q-106 -1 -190 -57q-83 -56 -130 -162v742q-41 -15 -87 -20t-83 -5q-79 1 -136 11q-58 9 -116 10q-74 0 -140 -23q-66 -24 -120 -72q-85 -76 -109 -189q-25 -112 -22 -265h-164v-41h164v-822q1 -84 -36 -116q-36 -32 -120 -31v-43q37 2 104 5q66 3 144 3
q79 0 152 -3t117 -5v43q-84 -2 -130 30t-47 117v822h261v41h-261v192q-2 72 11 145q12 72 59 123q23 24 58 41q34 16 83 17q42 0 91 -16t88 -54q24 -25 40 -65q15 -40 15 -105v-1231q0 -31 -3 -61q-4 -30 -12 -57l35 -15l146 124q55 -60 125 -90q71 -30 145 -30
q190 0 321 140q131 139 136 415q-3 280 -111 418q-107 139 -278 139v0zM1266 18q-64 0 -125 26q-61 25 -111 76v647q34 126 105 191q71 64 155 64q127 0 189 -123q61 -124 61 -373q0 -260 -69 -384q-68 -125 -205 -124v0z" />
    <glyph glyph-name="glyph272" horiz-adv-x="1337" 
d="M1400 1546q-32 25 -77 40q-44 16 -101 16q-76 0 -139 -27q-63 -28 -104 -76q-24 -28 -42 -59q-17 -32 -30 -71q-40 74 -116 113q-76 38 -170 38q-100 -1 -180 -37t-132 -97q-47 -55 -70 -137q-22 -83 -22 -196h-164v-41h164v-822q1 -84 -36 -116q-36 -32 -120 -31v-43
q38 2 108 5q69 3 142 3t141 -3t105 -5v43q-84 -1 -120 31q-37 32 -36 116v822h473v-822q1 -84 -36 -116q-36 -32 -120 -31v-43q38 2 104 5t138 3q97 0 182 -3q84 -3 133 -5v43q-102 -2 -159 34t-58 134v801h220v41h-220v53q-1 172 7 261q7 88 30 128q19 34 52 55
q34 20 81 21q44 -1 69 -13q26 -13 32 -32q-39 -8 -62 -34q-23 -27 -24 -71q1 -52 33 -81t79 -29q49 1 79 30q29 30 30 78q0 37 -17 70q-16 32 -47 57v0zM401 1053v104q0 171 56 249q55 78 172 77q105 -2 172 -48t93 -118q-10 -50 -15 -115t-5 -149h-473z" />
    <glyph glyph-name="glyph273" horiz-adv-x="2492" 
d="M2007 1083q-105 -1 -189 -57q-83 -56 -130 -161v741q-42 -15 -88 -20t-82 -5q-80 1 -137 11q-57 9 -115 10q-75 0 -140 -23q-66 -24 -120 -72q-49 -43 -77 -99q-51 56 -123 84q-71 28 -165 28q-105 -1 -187 -37q-83 -36 -137 -97q-48 -55 -74 -137q-26 -83 -26 -196h-164
v-41h164v-822q1 -84 -36 -116q-36 -32 -120 -31v-43q38 2 108 5q69 3 142 3t141 -3t105 -5v43q-84 -1 -120 31q-37 32 -36 116v822h473v-822q1 -84 -35 -116q-37 -32 -120 -31v-43q37 2 103 5t145 3t152 -3t116 -5v43q-84 -2 -130 30q-45 32 -46 117v822h260v41h-260v192
q-2 72 10 145q12 72 59 123q23 24 58 41q35 16 84 17q41 0 91 -16q49 -16 87 -54q25 -25 40 -65t15 -105v-1231q0 -31 -3 -61q-4 -30 -11 -57l35 -15l146 124q55 -60 125 -90t144 -30q190 0 321 140q131 139 136 415q-3 280 -111 418q-107 139 -278 139v0zM401 1053v104
q1 171 70 249q68 78 195 77q77 -1 140 -31t106 -81q-23 -64 -31 -144q-8 -79 -7 -174h-473zM1923 18q-64 0 -124 25q-61 26 -111 76v651q34 124 106 188q71 64 154 64q127 0 189 -123q61 -124 61 -373q0 -260 -69 -384q-69 -125 -206 -124v0z" />
    <glyph glyph-name="glyph274" horiz-adv-x="2511" 
d="M2324 737q0 103 -16 166q-17 63 -55 103q-35 37 -87 57q-53 20 -130 20q-107 2 -200 -53q-93 -56 -148 -192v766q-42 -14 -88 -19q-46 -4 -82 -4q-80 1 -137 11q-57 9 -115 10q-75 0 -140 -23q-66 -24 -120 -72q-49 -43 -77 -99q-51 56 -123 84q-71 28 -165 28
q-105 -1 -187 -37q-83 -36 -137 -97q-48 -55 -74 -137q-26 -83 -26 -196h-164v-41h164v-822q1 -84 -36 -116q-36 -32 -120 -31v-43q38 2 108 5q69 3 142 3t141 -3t105 -5v43q-84 -1 -120 31q-37 32 -36 116v822h473v-822q1 -84 -35 -116q-37 -32 -120 -31v-43q37 2 103 5
t145 3t152 -3t116 -5v43q-84 -2 -130 30q-45 32 -46 117v822h260v41h-260v192q-2 72 10 145q12 72 59 123q23 24 58 41q35 16 84 17q41 0 91 -16q49 -16 87 -54q25 -25 40 -65t15 -105v-1141q1 -84 -35 -116q-37 -32 -120 -31v-43q38 2 106 5q69 3 139 3q69 0 133 -3
q63 -3 97 -5v43q-73 -1 -105 31q-31 32 -30 116v457q2 166 80 267t206 104q108 -3 139 -70q31 -68 27 -166v-592q1 -84 -31 -116q-31 -32 -104 -31v-43q34 2 97 5t132 3q70 0 139 -3t107 -5v43q-84 -1 -120 31q-37 32 -36 116v547zM401 1053v104q1 171 70 249q68 78 195 77
q77 -1 140 -31t106 -81q-23 -64 -31 -144q-8 -79 -7 -174h-473z" />
    <glyph glyph-name="glyph275" horiz-adv-x="1925" 
d="M1729 1077q-66 -15 -144 -19q-78 -5 -196 -5h-330q0 146 13 228t42 132q40 73 112 115t179 43q41 0 82 -7q40 -7 67 -24q-31 -17 -49 -47t-18 -68q1 -55 39 -92q37 -37 92 -39q55 1 93 39q37 38 38 94q0 37 -19 65q-18 28 -51 48q-45 28 -116 45t-158 17
q-135 -1 -230 -39t-153 -95q-41 -39 -71 -87q-52 68 -129 104q-77 35 -181 35q-105 -1 -187 -37q-83 -36 -137 -97q-48 -55 -74 -137q-26 -83 -26 -196h-164v-41h164v-822q1 -84 -36 -116q-36 -32 -120 -31v-43q38 2 108 5q69 3 142 3t141 -3t105 -5v43q-84 -1 -120 31
q-37 32 -36 116v822h473v-822q1 -84 -35 -116q-37 -32 -120 -31v-43q37 2 103 5t145 3t152 -3t116 -5v43q-84 -2 -130 30q-45 32 -46 117v822h330q87 0 122 -44q34 -45 33 -137v-641q1 -84 -35 -116q-37 -32 -120 -31v-43q37 2 106 5q68 3 141 3t142 -3t106 -5v43
q-83 -1 -119 31q-37 32 -36 116v887zM401 1053v104q1 171 70 249q68 78 195 77q86 -1 155 -38q68 -38 111 -99q-31 -62 -44 -136q-14 -73 -14 -157h-473z" />
    <glyph glyph-name="glyph276" horiz-adv-x="1884" 
d="M1059 1053q0 146 13 228t42 132q40 73 112 115t179 43q41 0 82 -7q40 -7 67 -24q-31 -17 -49 -47t-18 -68q1 -55 39 -92q37 -37 92 -39q55 1 93 39q37 38 38 94q0 37 -19 65q-18 28 -51 48q-45 28 -116 45t-158 17q-135 -1 -230 -39t-153 -95q-41 -39 -71 -87
q-52 68 -129 104q-77 35 -181 35q-105 -1 -187 -37q-83 -36 -137 -97q-48 -55 -74 -137q-26 -83 -26 -196h-164v-41h164v-822q1 -84 -36 -116q-36 -32 -120 -31v-43q38 2 108 5q69 3 142 3t141 -3t105 -5v43q-84 -1 -120 31q-37 32 -36 116v822h473v-822q1 -84 -35 -116
q-37 -32 -120 -31v-43q37 2 103 5t139 3q96 0 181 -3q84 -3 134 -5v43q-102 -2 -159 34t-58 134v801h330q87 0 122 -44q34 -45 33 -137v-964q0 -40 -3 -71q-4 -31 -13 -56q-8 -20 -20 -36q-12 -17 -27 -28q-17 -12 -40 -19q-23 -8 -50 -11q19 22 26 44q6 22 6 38
q-1 39 -25 65q-25 26 -67 27q-45 -1 -70 -27q-26 -27 -26 -69q0 -27 12 -50q13 -23 39 -39q16 -9 37 -14q21 -6 49 -6q66 0 132 31q65 31 116 94q67 90 89 221t20 275v841q-66 -15 -144 -19q-78 -5 -196 -5h-330zM401 1053v104q1 171 70 249q68 78 195 77q86 -1 155 -38
q68 -38 111 -99q-31 -62 -44 -136q-14 -73 -14 -157h-473z" />
    <glyph glyph-name="glyph277" horiz-adv-x="2433" 
d="M1906 656l248 262q43 44 89 68q45 24 96 28v41q-32 -3 -79 -5q-48 -3 -99 -3q-47 0 -111 3q-65 2 -121 5v-41q66 0 108 -16q42 -17 43 -54q0 -21 -15 -49q-16 -28 -50 -64l-151 -157q-34 -36 -75 -57q-41 -20 -101 -28v1015q-42 -14 -88 -19q-46 -4 -82 -4q-80 1 -137 11
q-57 9 -115 10q-75 0 -140 -23q-66 -24 -120 -72q-49 -43 -77 -99q-51 56 -123 84q-71 28 -165 28q-105 -1 -187 -37q-83 -36 -137 -97q-48 -55 -74 -137q-26 -83 -26 -196h-164v-41h164v-822q1 -84 -36 -116q-36 -32 -120 -31v-43q38 2 108 5q69 3 142 3t141 -3t105 -5v43
q-84 -1 -120 31q-37 32 -36 116v822h473v-822q1 -84 -35 -116q-37 -32 -120 -31v-43q37 2 103 5t145 3t152 -3t116 -5v43q-84 -2 -130 30q-45 32 -46 117v822h260v41h-260v192q-2 72 10 145q12 72 59 123q23 24 58 41q35 16 84 17q41 0 91 -16q49 -16 87 -54q25 -25 40 -65
t15 -105v-1141q1 -84 -35 -116q-37 -32 -120 -31v-43q38 2 106 5q69 3 139 3q69 0 133 -3q63 -3 97 -5v43q-73 -1 -105 31q-31 32 -30 116v357q52 -1 85 -20t68 -70l236 -344q12 -17 12 -31q0 -18 -17 -28q-17 -11 -47 -11v-43q34 2 98 5q63 3 130 3q48 0 94 -3q47 -3 72 -5
v43q-45 6 -78 33q-32 26 -66 74zM401 1053v104q1 171 70 249q68 78 195 77q77 -1 140 -31t106 -81q-23 -64 -31 -144q-8 -79 -7 -174h-473z" />
    <glyph glyph-name="glyph278" horiz-adv-x="1929" 
d="M1729 1606q-46 -16 -97 -22q-50 -7 -94 -7q-68 2 -131 13q-62 10 -125 12q-76 0 -147 -23q-72 -23 -129 -72q-49 -43 -77 -99q-51 56 -123 84q-71 28 -165 28q-105 -1 -187 -37q-83 -36 -137 -97q-48 -55 -74 -137q-26 -83 -26 -196h-164v-41h164v-822q1 -84 -36 -116
q-36 -32 -120 -31v-43q38 2 108 5q69 3 142 3t141 -3t105 -5v43q-84 -1 -120 31q-37 32 -36 116v822h473v-822q1 -84 -35 -116q-37 -32 -120 -31v-43q37 2 103 5t145 3t152 -3t116 -5v43q-84 -2 -130 30q-45 32 -46 117v822h260v41h-260v192q-1 78 12 146t59 116
q23 26 63 44q39 19 99 20q45 1 100 -15t97 -55q26 -25 41 -65q14 -40 14 -105v-1141q1 -84 -35 -116q-37 -32 -120 -31v-43q37 2 106 5q68 3 141 3t142 -3t106 -5v43q-83 -1 -119 31q-37 32 -36 116v1416zM401 1053v104q1 171 70 249q68 78 195 77q77 -1 140 -31t106 -81
q-23 -65 -31 -145t-7 -173h-473z" />
    <glyph glyph-name="glyph279" horiz-adv-x="1853" 
d="M1030 1604q-41 -14 -87 -19q-46 -4 -83 -4q-79 1 -136 11q-58 9 -116 10q-74 0 -140 -23q-66 -24 -120 -72q-85 -76 -109 -189q-25 -112 -22 -265h-164v-41h164v-822q1 -84 -36 -116q-36 -32 -120 -31v-43q37 2 104 5q66 3 144 3q79 0 152 -3t117 -5v43q-84 -2 -130 30
t-47 117v822h261v41h-261v192q-2 72 11 145q12 72 59 123q23 24 58 41q34 16 83 17q42 0 91 -16t88 -54q24 -25 40 -65q15 -40 15 -105v-1141q1 -84 -36 -116q-36 -32 -120 -31v-43q38 2 107 5t139 3q69 0 132 -3t97 -5v43q-73 -1 -104 31q-32 32 -31 116v457q2 166 81 267
q78 101 206 104q107 -3 138 -70q31 -68 28 -166v-592q1 -84 -31 -116q-31 -32 -104 -31v-43q34 2 97 5t132 3q70 0 139 -3t107 -5v43q-84 -1 -120 31q-37 32 -36 116v547q0 103 -16 166q-17 63 -56 103q-35 37 -87 57t-130 20q-106 2 -199 -53q-93 -56 -149 -192v766z" />
    <glyph glyph-name="glyph280" horiz-adv-x="1268" 
d="M1071 1077q-65 -15 -143 -19q-78 -5 -197 -5h-330q0 90 1 196q2 106 10 162q11 77 55 116q44 40 119 40q44 0 81 -11q36 -11 63 -34q-49 -2 -83 -36t-35 -83q1 -51 35 -84q34 -34 84 -35q49 1 83 34t36 83v0v1v1v5q-6 93 -81 143q-74 50 -185 51q-75 1 -144 -22
q-68 -23 -118 -81q-56 -64 -81 -164t-24 -282h-164v-41h164v-822q1 -84 -36 -116q-36 -32 -120 -31v-43q37 2 104 5q66 3 144 3q79 0 152 -3t117 -5v43q-84 -2 -130 30t-47 117v822h330q88 0 123 -44q34 -45 33 -137v-641q1 -84 -36 -116q-36 -32 -120 -31v-43q38 2 106 5
q69 3 142 3t142 -3q68 -3 106 -5v43q-84 -1 -120 31q-37 32 -36 116v887zM1165 1522q-50 -2 -83 -36q-34 -34 -35 -83q1 -51 35 -84q33 -34 83 -35q49 1 84 35q34 33 35 84q-1 49 -35 83q-35 34 -84 36v0z" />
    <glyph glyph-name="glyph281" horiz-adv-x="1268" 
d="M1071 1077q-65 -15 -143 -19q-78 -5 -197 -5h-330v192q0 95 8 152q9 56 25 88q24 44 58 65t75 21q52 0 99 -22q47 -23 100 -71q45 -42 111 -100q65 -57 155 -151l23 18q-92 147 -136 239q-45 92 -87 150q-19 25 -39 35q-20 11 -40 11q-24 0 -44 -15q-13 -11 -20 -25
q-8 -15 -8 -32q0 -16 7 -34q-29 15 -60 22q-30 6 -63 6q-65 0 -126 -22q-62 -22 -111 -73q-72 -75 -93 -189q-20 -115 -18 -265h-164v-41h164v-822q1 -84 -36 -116q-36 -32 -120 -31v-43q37 2 104 5q66 3 144 3q79 0 152 -3t117 -5v43q-84 -2 -130 30t-47 117v822h330
q88 0 123 -44q34 -45 33 -137v-641q1 -84 -36 -116q-36 -32 -120 -31v-43q38 2 106 5q69 3 142 3t142 -3q68 -3 106 -5v43q-84 -1 -120 31q-37 32 -36 116v887z" />
    <glyph glyph-name="glyph282" horiz-adv-x="1227" 
d="M748 1602q-135 -1 -230 -39t-153 -95q-79 -75 -114 -180q-35 -104 -34 -235h-164v-41h164v-822q1 -84 -36 -116q-36 -32 -120 -31v-43q38 2 104 5t138 3q97 0 182 -3q84 -3 133 -5v43q-102 -2 -159 34t-58 134v801h330q88 0 123 -44q34 -45 33 -137v-964q0 -41 -5 -74
q-4 -32 -14 -57q-9 -22 -21 -37q-13 -16 -30 -27q-16 -10 -37 -17q-21 -6 -47 -9q20 22 27 44q6 22 6 38q-1 39 -25 65q-25 26 -67 27q-45 -1 -70 -27q-26 -27 -26 -69q0 -27 11 -50q12 -23 38 -39q16 -9 38 -14q22 -6 50 -6q66 0 132 31q65 31 116 94q67 90 89 221
q21 131 19 275v841q-65 -15 -143 -19q-78 -5 -197 -5h-330q0 146 13 228q14 82 43 132q39 73 111 115t180 43q41 0 81 -7q41 -7 68 -24q-31 -17 -49 -47q-19 -30 -19 -68q2 -55 39 -92q38 -37 93 -39q55 1 92 39t39 94q0 37 -19 65q-18 28 -51 48q-45 28 -116 45
q-72 17 -158 17v0z" />
    <glyph glyph-name="glyph283" horiz-adv-x="1776" 
d="M1248 656l249 262q43 44 88 68q46 24 96 28v41q-32 -3 -79 -5q-47 -3 -99 -3q-46 0 -111 3q-64 2 -120 5v-41q66 0 108 -16q42 -17 43 -54q0 -21 -15 -49q-16 -28 -50 -64l-152 -157q-34 -36 -75 -57q-41 -20 -101 -28v1015q-41 -14 -87 -19q-46 -4 -83 -4q-79 1 -136 11
q-58 9 -116 10q-74 0 -140 -23q-66 -24 -120 -72q-85 -76 -109 -189q-25 -112 -22 -265h-164v-41h164v-822q1 -84 -36 -116q-36 -32 -120 -31v-43q37 2 104 5q66 3 144 3q79 0 152 -3t117 -5v43q-84 -2 -130 30t-47 117v822h261v41h-261v192q-2 72 11 145q12 72 59 123
q23 24 58 41q34 16 83 17q42 0 91 -16t88 -54q24 -25 40 -65q15 -40 15 -105v-1141q1 -84 -36 -116q-36 -32 -120 -31v-43q38 2 107 5t139 3q69 0 132 -3t97 -5v43q-73 -1 -104 31q-32 32 -31 116v357q52 -1 86 -20q33 -19 68 -70l235 -344q12 -17 12 -31q0 -18 -17 -28
q-16 -11 -46 -11v-43q34 2 97 5t130 3q48 0 95 -3t71 -5v43q-45 6 -77 33q-32 26 -66 74z" />
    <glyph glyph-name="fi" unicode="&#xfb01;" horiz-adv-x="1268" 
d="M748 1602q-135 -1 -230 -39t-153 -95q-79 -75 -114 -180q-35 -104 -34 -235h-164v-41h164v-822q1 -84 -36 -116q-36 -32 -120 -31v-43q37 2 104 5q66 3 144 3q79 0 152 -3t117 -5v43q-84 -2 -130 30t-47 117v822h330q88 0 123 -44q34 -45 33 -137v-641q1 -84 -36 -116
q-36 -32 -120 -31v-43q38 2 106 5q69 3 142 3t142 -3q68 -3 106 -5v43q-84 -1 -120 31q-37 32 -36 116v887q-65 -15 -143 -19q-78 -5 -197 -5h-330q0 146 13 228q14 82 43 132q39 73 111 115t180 43q41 0 81 -7q41 -7 68 -24q-31 -17 -49 -47q-19 -30 -19 -68q2 -55 39 -92
q38 -37 93 -39q55 1 92 39t39 94q0 37 -19 65q-18 28 -51 48q-45 28 -116 45q-72 17 -158 17v0z" />
    <glyph glyph-name="fl" unicode="&#xfb02;" horiz-adv-x="1272" 
d="M1071 1606q-45 -16 -95 -22q-50 -7 -89 -7q-76 2 -138 13q-62 10 -124 12q-76 0 -148 -23q-71 -23 -129 -72q-85 -75 -109 -189q-25 -115 -22 -265h-164v-41h164v-822q1 -84 -36 -116q-36 -32 -120 -31v-43q37 2 104 5q66 3 144 3q79 0 152 -3t117 -5v43q-84 -2 -130 30
t-47 117v822h261v41h-261v192q-1 78 12 146q14 68 60 116q23 26 63 44q39 19 99 20q45 1 100 -15q54 -16 96 -55q26 -25 41 -65t15 -105v-1141q1 -84 -36 -116q-36 -32 -120 -31v-43q38 2 106 5q69 3 142 3t142 -3q68 -3 106 -5v43q-84 -1 -120 31q-37 32 -36 116v1416z" />
    <glyph glyph-name="glyph286" horiz-adv-x="2103" 
d="M1626 1083q-110 -1 -195 -58t-133 -165v414q-33 -12 -70 -18q-37 -7 -79 -9v51q-3 163 -78 235q-75 71 -190 69q-112 1 -191 -59q-80 -59 -84 -185q7 -105 54 -178q48 -74 48 -179q-51 42 -119 62q-69 20 -143 20q-129 1 -224 -64q-96 -65 -101 -202q4 -123 85 -199
q82 -76 197 -143q106 -63 169 -123q62 -59 63 -153q-1 -90 -54 -138t-143 -49q-139 4 -198 113q-58 109 -72 270h-47q0 -153 -2 -249t-6 -160h47q6 38 17 57q11 20 25 20q9 0 19 -8q21 -17 41 -30q20 -14 43 -25q31 -14 74 -21q42 -8 88 -8q144 0 245 73t105 214
q-4 125 -85 208q-81 82 -195 150q-111 67 -185 125q-75 58 -78 146q2 77 56 117q55 40 141 40q73 -1 132 -25t89 -61q-35 -42 -52 -84q-17 -43 -17 -77q0 -42 23 -72t69 -31q41 0 67 29q26 28 27 82q0 44 -18 91q-18 46 -53 78q7 29 7 56q-6 84 -46 159q-40 76 -46 171
q3 111 68 158q65 48 156 47q115 -1 176 -72t61 -201v-1472q1 -85 -36 -117q-36 -33 -120 -31v-43q38 2 104 5q66 4 138 4q97 0 182 -4q84 -3 134 -5v43q-103 -2 -160 34t-58 134v244q35 -50 97 -81t143 -32q249 10 360 191t109 413q-4 248 -110 378q-106 129 -271 130v0z
M1516 18q-82 1 -136 38q-54 36 -82 94v612q35 130 108 195q74 65 165 65q117 1 177 -116q60 -116 60 -359q3 -224 -61 -374q-64 -149 -231 -155v0z" />
    <glyph glyph-name="glyph287" horiz-adv-x="1681" 
d="M1624 262q-37 -119 -85 -168q-48 -50 -109 -49q-59 -1 -95 40q-36 42 -37 142v785h324v41h-324v342q-33 -12 -72 -18q-39 -7 -81 -10q-19 126 -91 181t-173 54q-112 1 -191 -59q-80 -59 -84 -185q7 -105 54 -178q48 -74 48 -179q-51 42 -119 62q-69 20 -143 20
q-129 1 -224 -64q-96 -65 -101 -202q4 -123 85 -199q82 -76 197 -143q106 -63 169 -123q62 -59 63 -153q-1 -90 -54 -138t-143 -49q-139 4 -198 113q-58 109 -72 270h-47q0 -153 -2 -249t-6 -160h47q6 38 17 57q11 20 25 20q9 0 19 -8q21 -17 41 -30q20 -14 43 -25
q31 -14 74 -21q42 -8 88 -8q144 0 245 73t105 214q-4 125 -85 208q-81 82 -195 150q-111 67 -185 125q-75 58 -78 146q2 77 56 117q55 40 141 40q73 -1 132 -25t89 -61q-35 -42 -52 -84q-17 -43 -17 -77q0 -42 23 -72t69 -31q41 0 67 29q26 28 27 82q0 44 -18 91
q-18 46 -53 78q7 29 7 56q-6 84 -46 159q-40 76 -46 171q3 111 68 158q65 48 156 47q115 -1 176 -72t61 -201v-239h-196v-41h196v-686q-1 -108 17 -176q17 -69 61 -113q33 -34 79 -50t118 -16q122 2 188 80q65 77 88 199z" />
    <glyph glyph-name="glyph288" horiz-adv-x="1262" 
d="M647 1255h-33l-452 -1024q-30 -72 -70 -123t-98 -67v-41q30 3 85 5q54 1 93 1q56 0 105 -1q49 -2 81 -5v41q-83 7 -121 38q-39 30 -38 83q0 28 9 60q8 33 25 71l69 153h500l103 -233q28 -61 28 -97q0 -40 -37 -57q-36 -16 -110 -18v-41q44 3 113 5q69 1 150 1
q59 0 117 -1q59 -2 102 -5v41q-33 0 -70 28q-38 28 -72 103zM784 487h-464l233 521z" />
    <glyph glyph-name="glyph289" horiz-adv-x="1262" 
d="M890 1632q28 19 42 40q13 20 13 40q0 21 -12 39q-10 16 -26 25t-37 9q-14 0 -29 -5q-16 -5 -33 -15q-60 -41 -133 -111q-74 -70 -211 -177l15 -27q156 76 252 111q95 35 159 71v0zM647 1255h-33l-452 -1024q-30 -72 -70 -123t-98 -67v-41q30 3 85 5q54 1 93 1
q56 0 105 -1q49 -2 81 -5v41q-83 7 -121 38q-39 30 -38 83q0 28 9 60q8 33 25 71l69 153h500l103 -233q28 -61 28 -97q0 -40 -37 -57q-36 -16 -110 -18v-41q44 3 113 5q69 1 150 1q59 0 117 -1q59 -2 102 -5v41q-33 0 -70 28q-38 28 -72 103zM784 487h-464l233 521z" />
    <glyph glyph-name="glyph290" horiz-adv-x="1262" 
d="M606 1436q148 5 245 79q96 74 142 158l-25 23q-44 -49 -133 -90q-90 -40 -229 -43q-140 2 -228 42q-89 40 -133 89l-26 -21q46 -84 142 -158t245 -79v0zM647 1255h-33l-452 -1024q-30 -72 -70 -123t-98 -67v-41q30 3 85 5q54 1 93 1q56 0 105 -1q49 -2 81 -5v41
q-83 7 -121 38q-39 30 -38 83q0 28 9 60q8 33 25 71l69 153h500l103 -233q28 -61 28 -97q0 -40 -37 -57q-36 -16 -110 -18v-41q44 3 113 5q69 1 150 1q59 0 117 -1q59 -2 102 -5v41q-33 0 -70 28q-38 28 -72 103zM784 487h-464l233 521z" />
    <glyph glyph-name="glyph291" horiz-adv-x="1262" 
d="M569 1593q70 -39 181 -77q111 -39 231 -66l10 29q-127 47 -222 119q-94 72 -140 151h-37q-46 -79 -141 -151t-222 -119l10 -29q94 27 183 66q89 38 147 77v0zM647 1255h-33l-452 -1024q-30 -72 -70 -123t-98 -67v-41q30 3 85 5q54 1 93 1q56 0 105 -1q49 -2 81 -5v41
q-83 7 -121 38q-39 30 -38 83q0 28 9 60q8 33 25 71l69 153h500l103 -233q28 -61 28 -97q0 -40 -37 -57q-36 -16 -110 -18v-41q44 3 113 5q69 1 150 1q59 0 117 -1q59 -2 102 -5v41q-33 0 -70 28q-38 28 -72 103zM784 487h-464l233 521z" />
    <glyph glyph-name="glyph292" horiz-adv-x="1262" 
d="M391 1462q49 1 83 35t36 84q-2 49 -36 84q-34 34 -83 35q-51 -1 -84 -35q-34 -35 -35 -84q1 -50 35 -84q33 -34 84 -35v0zM825 1462q49 1 84 35q34 34 35 84q-1 49 -35 84q-35 34 -84 35q-50 -1 -84 -35q-34 -35 -35 -84q1 -50 35 -84t84 -35v0zM647 1255h-33l-452 -1024
q-30 -72 -70 -123t-98 -67v-41q30 3 85 5q54 1 93 1q56 0 105 -1q49 -2 81 -5v41q-83 7 -121 38q-39 30 -38 83q0 28 9 60q8 33 25 71l69 153h500l103 -233q28 -61 28 -97q0 -40 -37 -57q-36 -16 -110 -18v-41q44 3 113 5q69 1 150 1q59 0 117 -1q59 -2 102 -5v41
q-33 0 -70 28q-38 28 -72 103zM784 487h-464l233 521z" />
    <glyph glyph-name="glyph293" horiz-adv-x="1262" 
d="M303 1632q64 -36 160 -71t252 -111l14 27q-137 107 -210 177q-74 70 -134 111q-17 10 -32 15q-16 5 -30 5q-20 0 -36 -9t-27 -25q-11 -18 -11 -38t13 -41t41 -40v0zM647 1255h-33l-452 -1024q-30 -72 -70 -123t-98 -67v-41q30 3 85 5q54 1 93 1q56 0 105 -1q49 -2 81 -5
v41q-83 7 -121 38q-39 30 -38 83q0 28 9 60q8 33 25 71l69 153h500l103 -233q28 -61 28 -97q0 -40 -37 -57q-36 -16 -110 -18v-41q44 3 113 5q69 1 150 1q59 0 117 -1q59 -2 102 -5v41q-33 0 -70 28q-38 28 -72 103zM784 487h-464l233 521z" />
    <glyph glyph-name="glyph294" horiz-adv-x="1262" 
d="M964 1530v51h-721v-51h721zM647 1255h-33l-452 -1024q-30 -72 -70 -123t-98 -67v-41q30 3 85 5q54 1 93 1q56 0 105 -1q49 -2 81 -5v41q-83 7 -121 38q-39 30 -38 83q0 28 9 60q8 33 25 71l69 153h500l103 -233q28 -61 28 -97q0 -40 -37 -57q-36 -16 -110 -18v-41
q44 3 113 5q69 1 150 1q59 0 117 -1q59 -2 102 -5v41q-33 0 -70 28q-38 28 -72 103zM784 487h-464l233 521z" />
    <glyph glyph-name="glyph295" horiz-adv-x="1262" 
d="M1202 3q38 -1 66 -3v41q-33 0 -70 28q-38 28 -72 103l-479 1083h-33l-452 -1024q-30 -72 -70 -123t-98 -67v-41q30 3 85 5q54 1 93 1q56 0 105 -1q49 -2 81 -5v41q-83 7 -121 38q-39 30 -38 83q0 28 9 60q8 33 25 71l69 153h500l103 -233q28 -61 28 -97q0 -40 -37 -57
q-36 -16 -110 -18v-41q44 3 113 5q69 1 150 1l83 -1q-135 -45 -208 -110q-72 -66 -73 -147q1 -61 44 -96q44 -36 118 -37q68 0 126 34q58 33 105 105l-30 27q-21 -29 -53 -48q-33 -19 -72 -20q-42 1 -65 25q-23 25 -23 65q-2 54 43 109q44 56 158 91v0zM784 487h-464
l233 521z" />
    <glyph glyph-name="glyph296" horiz-adv-x="1262" 
d="M608 1397q83 1 140 50t59 138q-2 87 -59 137q-57 49 -140 50q-80 -1 -137 -50q-56 -50 -59 -137q3 -89 59 -138q57 -49 137 -50v0zM608 1729q54 0 97 -38q43 -37 45 -108q-2 -72 -45 -107q-43 -36 -97 -36q-51 0 -94 36q-42 35 -45 107q3 71 45 108q43 38 94 38v0z
M647 1255h-33l-452 -1024q-30 -72 -70 -123t-98 -67v-41q30 3 85 5q54 1 93 1q56 0 105 -1q49 -2 81 -5v41q-83 7 -121 38q-39 30 -38 83q0 28 9 60q8 33 25 71l69 153h500l103 -233q28 -61 28 -97q0 -40 -37 -57q-36 -16 -110 -18v-41q44 3 113 5q69 1 150 1q59 0 117 -1
q59 -2 102 -5v41q-33 0 -70 28q-38 28 -72 103zM784 487h-464l233 521z" />
    <glyph glyph-name="glyph297" horiz-adv-x="1262" 
d="M382 1608q101 -10 194 -79q92 -69 204 -79q86 1 145 58q58 57 82 159l-35 10q-22 -65 -59 -92q-36 -27 -84 -26q-101 10 -193 79q-93 68 -205 78q-86 -1 -145 -58q-58 -57 -82 -159l35 -10q22 65 58 93q36 27 85 26v0zM647 1255h-33l-452 -1024q-30 -72 -70 -123t-98 -67
v-41q30 3 85 5q54 1 93 1q56 0 105 -1q49 -2 81 -5v41q-83 7 -121 38q-39 30 -38 83q0 28 9 60q8 33 25 71l69 153h500l103 -233q28 -61 28 -97q0 -40 -37 -57q-36 -16 -110 -18v-41q44 3 113 5q69 1 150 1q59 0 117 -1q59 -2 102 -5v41q-33 0 -70 28q-38 28 -72 103z
M784 487h-464l233 521z" />
    <glyph glyph-name="glyph298" horiz-adv-x="1624" 
d="M1497 242q0 43 2 81q1 38 4 66h-47q-10 -189 -50 -267q-39 -78 -183 -75h-129q-102 -3 -135 29q-34 33 -31 141v389h149q102 -4 127 -67t29 -142h47q-7 91 -10 141q-2 50 -2 89v37q-1 18 -1 40q0 27 1 64q2 37 6 88h-47q-4 -62 -26 -132q-21 -71 -124 -77h-149v381
q-3 109 31 141q33 32 135 29h108q122 2 162 -66q40 -69 51 -235h47q-3 24 -4 57q-2 33 -2 70q0 34 3 94q4 59 11 127q-84 -4 -184 -5t-182 -1h-135q-83 0 -177 1l62 110h-47l-62 -109q-45 1 -89 2t-85 2v-41q51 -2 84 -9q32 -6 50 -24l-570 -999q-42 -71 -76 -101
q-33 -29 -65 -30v-41q27 3 64 5q37 1 73 1q56 0 105 -1q49 -2 81 -5v41q-70 3 -105 19q-36 17 -36 54q0 19 9 43q8 25 26 56l222 393h304v-389q2 -108 -22 -142q-25 -33 -103 -34v-41q133 4 271 5q139 1 221 1q92 0 203 -1t204 -5q-7 74 -11 139q-3 66 -3 103v0zM737 647
h-281l272 481q5 -18 7 -43t2 -57v-381z" />
    <glyph glyph-name="glyph299" horiz-adv-x="1235" 
d="M745 668q160 45 227 124q66 79 64 171q0 124 -103 201q-104 77 -308 79q-36 0 -116 -2t-173 -2q-69 0 -137 2q-68 1 -113 4v-41q102 -1 135 -33q34 -33 31 -143v-811q3 -108 -31 -142q-33 -33 -135 -34v-41q44 3 112 5q68 1 142 1q119 0 204 -3q84 -3 128 -3
q223 3 346 94q123 92 125 242q4 111 -83 203q-88 92 -315 125v4zM573 1204q142 0 205 -67q63 -68 62 -197q4 -118 -56 -194q-60 -75 -225 -78h-117v360q-2 104 25 141t106 35v0zM575 47q-80 -3 -108 31q-27 35 -25 139v416h152q183 -1 264 -75q82 -75 80 -214
q1 -145 -86 -220q-88 -76 -277 -77v0z" />
    <glyph glyph-name="glyph300" horiz-adv-x="1317" 
d="M721 1274q-272 -4 -438 -183q-167 -178 -172 -481q4 -307 167 -472t441 -167q114 2 192 40q77 38 140 93q12 10 22 15t19 5q21 0 33 -31q13 -31 18 -93h47q-4 70 -6 176t-2 275h-47q-15 -107 -35 -169q-21 -63 -60 -114q-59 -79 -141 -117q-83 -39 -172 -39
q-176 1 -292 155t-120 451q2 290 108 451t290 164q88 0 167 -39q79 -40 138 -117q37 -46 60 -100q22 -53 42 -162h47q0 161 2 262t7 168h-48q-5 -62 -18 -93q-12 -31 -34 -31q-16 0 -40 20q-60 54 -133 92q-74 39 -182 41v0z" />
    <glyph glyph-name="glyph301" horiz-adv-x="1317" 
d="M900 1765q-60 -41 -133 -111q-74 -70 -211 -177l15 -27q156 76 252 111q95 35 159 71q28 19 42 40q13 20 13 40q0 21 -12 39q-10 16 -26 25t-37 9q-14 0 -29 -5q-16 -5 -33 -15v0zM721 1274q-272 -4 -438 -183q-167 -178 -172 -481q4 -307 167 -472t441 -167
q114 2 192 40q77 38 140 93q12 10 22 15t19 5q21 0 33 -31q13 -31 18 -93h47q-4 70 -6 176t-2 275h-47q-15 -107 -35 -169q-21 -63 -60 -114q-59 -79 -141 -117q-83 -39 -172 -39q-176 1 -292 155t-120 451q2 290 108 451t290 164q88 0 167 -39q79 -40 138 -117
q37 -46 60 -100q22 -53 42 -162h47q0 161 2 262t7 168h-48q-5 -62 -18 -93q-12 -31 -34 -31q-16 0 -40 20q-60 54 -133 92q-74 39 -182 41v0z" />
    <glyph glyph-name="glyph302" horiz-adv-x="1317" 
d="M1069 1733q-94 -27 -183 -66t-147 -78q-70 39 -181 78t-231 66l-10 -29q127 -48 222 -119q95 -72 141 -151h37q46 79 140 151q95 71 222 119zM721 1274q-272 -4 -438 -183q-167 -178 -172 -481q4 -307 167 -472t441 -167q114 2 192 40q77 38 140 93q12 10 22 15t19 5
q21 0 33 -31q13 -31 18 -93h47q-4 70 -6 176t-2 275h-47q-15 -107 -35 -169q-21 -63 -60 -114q-59 -79 -141 -117q-83 -39 -172 -39q-176 1 -292 155t-120 451q2 290 108 451t290 164q88 0 167 -39q79 -40 138 -117q37 -46 60 -100q22 -53 42 -162h47q0 161 2 262t7 168h-48
q-5 -62 -18 -93q-12 -31 -34 -31q-16 0 -40 20q-60 54 -133 92q-74 39 -182 41v0z" />
    <glyph glyph-name="glyph303" horiz-adv-x="1317" 
d="M1135 451q-15 -107 -35 -169q-21 -63 -60 -114q-59 -79 -141 -117q-83 -39 -172 -39q-176 1 -292 155t-120 451q2 290 108 451t290 164q88 0 167 -39q79 -40 138 -117q37 -46 60 -100q22 -53 42 -162h47q0 161 2 262t7 168h-48q-5 -62 -18 -93q-12 -31 -34 -31
q-16 0 -40 20q-60 54 -133 92q-74 39 -182 41q-272 -4 -438 -183q-167 -178 -172 -481q3 -296 156 -461q153 -164 414 -177l-56 -169q25 8 53 12q29 3 47 3q41 0 64 -14q22 -15 22 -44q-4 -54 -62 -73q-58 -20 -122 -19q-25 0 -46 2t-32 4l-8 -36q28 -10 70 -16
q43 -7 100 -7q79 -1 152 35q74 36 79 121q-1 46 -34 71t-91 25q-34 0 -64 -4q-31 -4 -57 -10l41 118q106 5 180 43q73 38 134 90q12 10 22 15t19 5q21 0 33 -31q13 -31 18 -93h47q-4 70 -6 176t-2 275h-47z" />
    <glyph glyph-name="glyph304" horiz-adv-x="1317" 
d="M684 1749q-46 -79 -141 -151t-222 -119l10 -29q94 27 183 66q89 38 147 77q70 -39 181 -77q111 -39 231 -66l10 29q-127 47 -222 119q-94 72 -140 151h-37zM721 1274q-272 -4 -438 -183q-167 -178 -172 -481q4 -307 167 -472t441 -167q114 2 192 40q77 38 140 93
q12 10 22 15t19 5q21 0 33 -31q13 -31 18 -93h47q-4 70 -6 176t-2 275h-47q-15 -107 -35 -169q-21 -63 -60 -114q-59 -79 -141 -117q-83 -39 -172 -39q-176 1 -292 155t-120 451q2 290 108 451t290 164q88 0 167 -39q79 -40 138 -117q37 -46 60 -100q22 -53 42 -162h47
q0 161 2 262t7 168h-48q-5 -62 -18 -93q-12 -31 -34 -31q-16 0 -40 20q-60 54 -133 92q-74 39 -182 41v0z" />
    <glyph glyph-name="glyph305" horiz-adv-x="1317" 
d="M700 1712q-55 -1 -92 -38q-38 -38 -39 -93q1 -55 39 -92q37 -38 92 -39q55 1 92 39q37 37 39 92q-2 55 -39 93q-37 37 -92 38v0zM721 1274q-272 -4 -438 -183q-167 -178 -172 -481q4 -307 167 -472t441 -167q114 2 192 40q77 38 140 93q12 10 22 15t19 5q21 0 33 -31
q13 -31 18 -93h47q-4 70 -6 176t-2 275h-47q-15 -107 -35 -169q-21 -63 -60 -114q-59 -79 -141 -117q-83 -39 -172 -39q-176 1 -292 155t-120 451q2 290 108 451t290 164q88 0 167 -39q79 -40 138 -117q37 -46 60 -100q22 -53 42 -162h47q0 161 2 262t7 168h-48
q-5 -62 -18 -93q-12 -31 -34 -31q-16 0 -40 20q-60 54 -133 92q-74 39 -182 41v0z" />
    <glyph glyph-name="glyph306" horiz-adv-x="1399" 
d="M645 1245q-62 0 -148 -2q-87 -2 -161 -4h-25q-12 -1 -25 -1q-58 0 -111 2q-53 3 -89 5v-41q102 -1 135 -33q34 -33 31 -143v-811q3 -108 -31 -142q-33 -33 -135 -34v-41q44 3 112 5q68 1 142 1q70 0 153 -3q84 -3 134 -3q318 4 488 175q169 171 171 464q0 296 -159 450
q-160 155 -482 156v0zM594 1208q269 0 380 -143q111 -144 107 -434q5 -290 -100 -441q-105 -152 -385 -153q-93 -2 -125 34q-31 37 -29 142v819q-2 104 29 141t123 35v0z" />
    <glyph glyph-name="glyph307" horiz-adv-x="1401" 
d="M647 1245q-62 0 -148 -2q-87 -2 -161 -4h-25q-12 -1 -25 -1q-58 0 -111 2q-53 3 -89 5v-41q102 -1 135 -33q34 -33 31 -143v-381h-166v-41h166v-389q3 -108 -31 -142q-33 -33 -135 -34v-41q44 3 112 5q68 1 142 1q70 0 153 -3q84 -3 134 -3q318 4 488 175
q169 171 171 464q0 296 -159 450q-160 155 -482 156v0zM598 37q-93 -2 -125 34q-31 37 -29 142v393h283v41h-283v385q-2 104 29 141t123 35q269 0 380 -143q111 -144 107 -434q5 -290 -100 -441q-105 -152 -385 -153v0z" />
    <glyph glyph-name="glyph308" horiz-adv-x="1399" 
d="M1014 1733q-94 -27 -183 -66t-147 -78q-70 39 -181 78t-231 66l-10 -29q127 -48 222 -119q95 -72 141 -151h37q46 79 140 151q95 71 222 119zM645 1245q-62 0 -148 -2q-87 -2 -161 -4h-25q-12 -1 -25 -1q-58 0 -111 2q-53 3 -89 5v-41q102 -1 135 -33q34 -33 31 -143
v-811q3 -108 -31 -142q-33 -33 -135 -34v-41q44 3 112 5q68 1 142 1q70 0 153 -3q84 -3 134 -3q318 4 488 175q169 171 171 464q0 296 -159 450q-160 155 -482 156v0zM594 1208q269 0 380 -143q111 -144 107 -434q5 -290 -100 -441q-105 -152 -385 -153q-93 -2 -125 34
q-31 37 -29 142v819q-2 104 29 141t123 35v0z" />
    <glyph glyph-name="glyph309" horiz-adv-x="1401" 
d="M647 1245q-62 0 -148 -2q-87 -2 -161 -4h-25q-12 -1 -25 -1q-58 0 -111 2q-53 3 -89 5v-41q102 -1 135 -33q34 -33 31 -143v-381h-166v-41h166v-389q3 -108 -31 -142q-33 -33 -135 -34v-41q44 3 112 5q68 1 142 1q70 0 153 -3q84 -3 134 -3q318 4 488 175
q169 171 171 464q0 296 -159 450q-160 155 -482 156v0zM598 37q-93 -2 -125 34q-31 37 -29 142v393h283v41h-283v385q-2 104 29 141t123 35q269 0 380 -143q111 -144 107 -434q5 -290 -100 -441q-105 -152 -385 -153v0z" />
    <glyph glyph-name="glyph310" horiz-adv-x="1219" 
d="M1094 242q0 43 2 81q1 38 4 66h-47q-15 -189 -81 -267t-214 -75h-150q-102 -3 -135 29q-34 33 -31 141v389h170q103 -4 137 -67q33 -63 39 -142h48q-8 91 -11 141q-2 50 -2 89v37q-1 18 -1 40q0 27 1 64q2 37 6 88h-47q-5 -62 -36 -132q-31 -71 -134 -77h-170v381
q-3 109 31 141q33 32 135 29h150q124 2 182 -66q58 -69 72 -235h47q-3 24 -4 57q-2 33 -2 70q0 34 3 94q4 59 11 127q-94 -4 -205 -5t-203 -1q-95 0 -258 1q-162 1 -315 5v-41q102 -1 135 -34q34 -33 31 -142v-811q3 -108 -31 -142q-33 -33 -135 -34v-41q153 4 315 5
q163 1 258 1q102 0 224 -1t225 -5q-7 74 -11 139q-3 66 -3 103v0z" />
    <glyph glyph-name="glyph311" horiz-adv-x="1219" 
d="M894 1632q28 19 42 40q13 20 13 40q0 21 -12 39q-10 16 -26 25t-37 9q-14 0 -29 -5q-16 -5 -33 -15q-60 -41 -133 -111q-74 -70 -211 -177l15 -27q156 76 252 111q95 35 159 71v0zM1094 242q0 43 2 81q1 38 4 66h-47q-15 -189 -81 -267t-214 -75h-150q-102 -3 -135 29
q-34 33 -31 141v389h170q103 -4 137 -67q33 -63 39 -142h48q-8 91 -11 141q-2 50 -2 89v37q-1 18 -1 40q0 27 1 64q2 37 6 88h-47q-5 -62 -36 -132q-31 -71 -134 -77h-170v381q-3 109 31 141q33 32 135 29h150q124 2 182 -66q58 -69 72 -235h47q-3 24 -4 57q-2 33 -2 70
q0 34 3 94q4 59 11 127q-94 -4 -205 -5t-203 -1q-95 0 -258 1q-162 1 -315 5v-41q102 -1 135 -34q34 -33 31 -142v-811q3 -108 -31 -142q-33 -33 -135 -34v-41q153 4 315 5q163 1 258 1q102 0 224 -1t225 -5q-7 74 -11 139q-3 66 -3 103v0z" />
    <glyph glyph-name="glyph312" horiz-adv-x="1219" 
d="M610 1436q148 5 245 79q96 74 142 158l-25 23q-44 -49 -133 -90q-90 -40 -229 -43q-140 2 -228 42q-89 40 -133 89l-26 -21q46 -84 142 -158t245 -79v0zM1094 242q0 43 2 81q1 38 4 66h-47q-15 -189 -81 -267t-214 -75h-150q-102 -3 -135 29q-34 33 -31 141v389h170
q103 -4 137 -67q33 -63 39 -142h48q-8 91 -11 141q-2 50 -2 89v37q-1 18 -1 40q0 27 1 64q2 37 6 88h-47q-5 -62 -36 -132q-31 -71 -134 -77h-170v381q-3 109 31 141q33 32 135 29h150q124 2 182 -66q58 -69 72 -235h47q-3 24 -4 57q-2 33 -2 70q0 34 3 94q4 59 11 127
q-94 -4 -205 -5t-203 -1q-95 0 -258 1q-162 1 -315 5v-41q102 -1 135 -34q34 -33 31 -142v-811q3 -108 -31 -142q-33 -33 -135 -34v-41q153 4 315 5q163 1 258 1q102 0 224 -1t225 -5q-7 74 -11 139q-3 66 -3 103v0z" />
    <glyph glyph-name="glyph313" horiz-adv-x="1219" 
d="M629 1434q46 79 140 151q95 71 222 119l-10 29q-94 -27 -183 -66t-147 -78q-70 39 -181 78t-231 66l-10 -29q127 -48 222 -119q95 -72 141 -151h37zM1094 242q0 43 2 81q1 38 4 66h-47q-15 -189 -81 -267t-214 -75h-150q-102 -3 -135 29q-34 33 -31 141v389h170
q103 -4 137 -67q33 -63 39 -142h48q-8 91 -11 141q-2 50 -2 89v37q-1 18 -1 40q0 27 1 64q2 37 6 88h-47q-5 -62 -36 -132q-31 -71 -134 -77h-170v381q-3 109 31 141q33 32 135 29h150q124 2 182 -66q58 -69 72 -235h47q-3 24 -4 57q-2 33 -2 70q0 34 3 94q4 59 11 127
q-94 -4 -205 -5t-203 -1q-95 0 -258 1q-162 1 -315 5v-41q102 -1 135 -34q34 -33 31 -142v-811q3 -108 -31 -142q-33 -33 -135 -34v-41q153 4 315 5q163 1 258 1q102 0 224 -1t225 -5q-7 74 -11 139q-3 66 -3 103v0z" />
    <glyph glyph-name="glyph314" horiz-adv-x="1219" 
d="M573 1593q70 -39 181 -77q111 -39 231 -66l10 29q-127 47 -222 119q-94 72 -140 151h-37q-46 -79 -141 -151t-222 -119l10 -29q94 27 183 66q89 38 147 77v0zM1094 242q0 43 2 81q1 38 4 66h-47q-15 -189 -81 -267t-214 -75h-150q-102 -3 -135 29q-34 33 -31 141v389h170
q103 -4 137 -67q33 -63 39 -142h48q-8 91 -11 141q-2 50 -2 89v37q-1 18 -1 40q0 27 1 64q2 37 6 88h-47q-5 -62 -36 -132q-31 -71 -134 -77h-170v381q-3 109 31 141q33 32 135 29h150q124 2 182 -66q58 -69 72 -235h47q-3 24 -4 57q-2 33 -2 70q0 34 3 94q4 59 11 127
q-94 -4 -205 -5t-203 -1q-95 0 -258 1q-162 1 -315 5v-41q102 -1 135 -34q34 -33 31 -142v-811q3 -108 -31 -142q-33 -33 -135 -34v-41q153 4 315 5q163 1 258 1q102 0 224 -1t225 -5q-7 74 -11 139q-3 66 -3 103v0z" />
    <glyph glyph-name="glyph315" horiz-adv-x="1219" 
d="M395 1462q49 1 83 35t36 84q-2 49 -36 84q-34 34 -83 35q-51 -1 -84 -35q-34 -35 -35 -84q1 -50 35 -84q33 -34 84 -35v0zM829 1462q49 1 84 35q34 34 35 84q-1 49 -35 84q-35 34 -84 35q-50 -1 -84 -35q-34 -35 -35 -84q1 -50 35 -84t84 -35v0zM1094 242q0 43 2 81
q1 38 4 66h-47q-15 -189 -81 -267t-214 -75h-150q-102 -3 -135 29q-34 33 -31 141v389h170q103 -4 137 -67q33 -63 39 -142h48q-8 91 -11 141q-2 50 -2 89v37q-1 18 -1 40q0 27 1 64q2 37 6 88h-47q-5 -62 -36 -132q-31 -71 -134 -77h-170v381q-3 109 31 141q33 32 135 29
h150q124 2 182 -66q58 -69 72 -235h47q-3 24 -4 57q-2 33 -2 70q0 34 3 94q4 59 11 127q-94 -4 -205 -5t-203 -1q-95 0 -258 1q-162 1 -315 5v-41q102 -1 135 -34q34 -33 31 -142v-811q3 -108 -31 -142q-33 -33 -135 -34v-41q153 4 315 5q163 1 258 1q102 0 224 -1t225 -5
q-7 74 -11 139q-3 66 -3 103v0z" />
    <glyph glyph-name="glyph316" horiz-adv-x="1219" 
d="M612 1450q55 1 92 39q37 37 39 92q-2 55 -39 93q-37 37 -92 38q-55 -1 -92 -38q-38 -38 -39 -93q1 -55 39 -92q37 -38 92 -39v0zM1094 242q0 43 2 81q1 38 4 66h-47q-15 -189 -81 -267t-214 -75h-150q-102 -3 -135 29q-34 33 -31 141v389h170q103 -4 137 -67
q33 -63 39 -142h48q-8 91 -11 141q-2 50 -2 89v37q-1 18 -1 40q0 27 1 64q2 37 6 88h-47q-5 -62 -36 -132q-31 -71 -134 -77h-170v381q-3 109 31 141q33 32 135 29h150q124 2 182 -66q58 -69 72 -235h47q-3 24 -4 57q-2 33 -2 70q0 34 3 94q4 59 11 127q-94 -4 -205 -5
t-203 -1q-95 0 -258 1q-162 1 -315 5v-41q102 -1 135 -34q34 -33 31 -142v-811q3 -108 -31 -142q-33 -33 -135 -34v-41q153 4 315 5q163 1 258 1q102 0 224 -1t225 -5q-7 74 -11 139q-3 66 -3 103v0z" />
    </font>
</defs>
</svg>
